<?xml version="1.0" standalone="no"?>
<!DOCTYPE svg PUBLIC "-//W3C//DTD SVG 1.1//EN" "http://www.w3.org/Graphics/SVG/1.1/DTD/svg11.dtd">
<svg xmlns="http://www.w3.org/2000/svg">
<defs >
<font id="Oxygen" horiz-adv-x="978" ><font-face
    font-family="Oxygen"
    units-per-em="2048"
    panose-1="2 0 8 3 0 0 0 0 0 0"
    ascent="2103"
    descent="-483"
    alphabetic="0" />
<glyph unicode=" " horiz-adv-x="541" />
<glyph unicode="!" horiz-adv-x="446" d="M193 449L108 1162V1458H349V1162L259 449H193ZM224 -18Q159 -18 114 27T69 134Q69 197 114 243T224 289Q288 289 332 243T377 134Q377 72 333 27T224 -18Z" />
<glyph unicode="&quot;" horiz-adv-x="784" d="M143 955L108 1470H332L302 955H143ZM487 955L454 1470H677L646 955H487Z" />
<glyph unicode="#" horiz-adv-x="1192" d="M178 -15L255 404H53L61 583H288L343 898H131L139 1077H375L455 1458H650L574 1077H767L841 1458H1031L956 1077H1137L1125 899H923L863 583H1058L1048 404H833L753 -15H557L636 404H446L367 -15H178ZM478 583H672L733
899H540L478 583Z" />
<glyph unicode="$" horiz-adv-x="1194" d="M558 -212L556 -20Q301 -17 94 102L160 317Q358 208 558 202V636Q438 671 396 688Q101 792 101 1076Q101 1261 225 1368T558 1489V1643H656V1491Q896 1484 1075 1382L993 1184Q813 1265 656 1271V878Q664 875 680 870T715
859T742 851Q943 785 1029 687T1116 414Q1116 225 993 114T656 -16V-212H558ZM558 911V1267Q473 1256 429 1213T381 1088Q381 966 502 929Q516 924 558 911ZM656 208Q841 238 841 416Q841 544 686 596Q683 598 671 601T656 606V208Z" />
<glyph unicode="%" horiz-adv-x="1790" d="M407 836Q494 836 538 901T583 1069Q583 1174 539 1239T408 1304T278 1238T234 1067T277 899T407 836ZM404 677Q241 677 148 787T54 1067T150 1349T409 1461Q578 1461 675 1351T772 1070Q772 901 671 789T404 677ZM307
-32L1208 1450L1428 1449L520 -32H307ZM1382 142Q1472 142 1517 207T1563 377T1515 544T1370 608T1236 545T1198 372Q1198 268 1244 205T1382 142ZM1379 -17Q1207 -17 1108 93T1008 372Q1008 766 1371 766Q1550 766 1645 658T1741 376Q1741 207 1644 95T1379 -17Z"
/>
<glyph unicode="&amp;" horiz-adv-x="1436" d="M580 -23Q474 -23 383 2T217 76T101 210T58 404Q58 468 77 524T125 621T201 703T292 771T395 831Q354 877 332 904T283 975T243 1060T230 1150Q230 1260 284 1337T422 1450T612 1485Q686 1485 754 1467T881 1411T974
1312T1009 1168Q1009 1100 982 1041T906 934T805 853T687 786L1037 404Q1118 492 1191 634L1361 521Q1283 370 1181 256L1388 37Q1381 35 1283 11T1178 -16L1036 133Q831 -23 580 -23ZM587 168Q673 168 755 196T899 276Q880 296 703 488T508 701Q466 677 440 661T381
618T332 566T302 504T289 426Q289 299 372 234T587 168ZM571 924Q618 949 648 969T713 1019T764 1086T781 1166Q781 1239 736 1277T619 1315Q542 1315 497 1276T451 1160Q451 1048 571 924Z" />
<glyph unicode="&apos;" horiz-adv-x="440" d="M140 929L105 1464H319L292 929H140Z" />
<glyph unicode="(" horiz-adv-x="650" d="M376 -276Q93 111 93 597Q93 1093 375 1488H611Q511 1345 426 1095T341 599Q341 359 426 111T610 -276H376Z" />
<glyph unicode=")" horiz-adv-x="650" d="M41 -276Q101 -190 159 -61T263 251T309 599Q309 843 225 1093T40 1488H275Q558 1089 558 597Q558 113 274 -276H41Z" />
<glyph unicode="*" horiz-adv-x="1104" d="M375 562L171 676L413 982L71 1059L135 1266L472 1133L437 1504H665L630 1133L971 1262L1032 1054L688 982Q693 975 807 833T933 676Q927 672 833 619T731 562L549 885L375 562Z" />
<glyph unicode="+" horiz-adv-x="1180" d="M492 146V554H83V745H493V1153H691V745H1098V554H690V146H492Z" />
<glyph unicode="," horiz-adv-x="508" d="M64 -283Q121 -6 158 232H402L399 183Q334 -43 241 -283H64Z" />
<glyph unicode="-" horiz-adv-x="677" d="M70 445V649H606V445H70Z" />
<glyph unicode="." horiz-adv-x="473" d="M245 -18Q180 -18 135 27T90 134Q90 197 134 243T245 289Q309 289 353 243T397 134Q397 72 353 27T245 -18Z" />
<glyph unicode="/" horiz-adv-x="949" d="M52 -189L674 1489H892L265 -189H52Z" />
<glyph unicode="0" horiz-adv-x="1296" d="M569 187T649 187T785 233T871 360T914 534T927 740Q927 1282 649 1282Q373 1282 369 744Q369 630 382 537T425 362T512 233ZM768 -21T649 -21T435 19T278 129T175 296T116 501T98 732Q98 857 116 966T176 1173T280 1340T437
1449T649 1490T861 1450T1017 1340T1120 1173T1180 966T1198 732Q1198 609 1181 501T1122 296T1019 129T863 20Z" />
<glyph unicode="1" horiz-adv-x="686" d="M303 1V1220Q289 1211 174 1163T43 1110V1310Q67 1321 195 1385T336 1459H556V1H303Z" />
<glyph unicode="2" horiz-adv-x="1054" d="M85 0L79 216L542 740Q628 832 667 909T707 1073Q707 1168 645 1224T482 1281Q389 1281 299 1247T150 1160L75 1358Q225 1490 497 1490Q713 1490 844 1382T976 1075Q976 935 902 808T698 547L368 197H959L941 0H85Z" />
<glyph unicode="3" horiz-adv-x="1078" d="M485 -21Q356 -21 243 12T63 103L135 292Q190 246 287 217T486 187Q601 187 671 249T742 411Q742 473 723 518T671 590T586 633T476 656T341 663Q338 663 312 663T283 664V866H339Q426 866 488 875T604 906T685 971T713
1077Q713 1162 649 1222T469 1282Q281 1282 134 1188L62 1378Q244 1490 494 1490Q703 1490 835 1380T968 1098Q968 978 907 894T728 770Q862 744 935 641T1009 398Q1009 265 938 169T750 26T485 -21Z" />
<glyph unicode="4" horiz-adv-x="1253" d="M753 0V325H92V503L685 1458H1018V523H1198L1185 325H1018V0H753ZM352 522H753V1202L352 522Z" />
<glyph unicode="5" horiz-adv-x="1138" d="M542 -21Q443 -21 338 11T178 73T105 119L185 307Q204 292 240 270T358 218T515 189Q655 189 727 267T799 471Q799 590 734 662T564 734Q440 734 342 626L167 660L205 1458H1001L986 1252H437Q437 1234 431 1072T423
890Q511 937 608 937Q810 937 933 807T1057 468Q1057 246 922 113T542 -21Z" />
<glyph unicode="6" horiz-adv-x="1205" d="M615 -21Q371 -21 218 112T65 463Q65 533 80 597T126 722T188 830T268 942L684 1467H994L540 894Q613 919 662 919Q877 919 1014 791T1151 456Q1151 242 1001 111T615 -21ZM603 179Q735 179 809 254T884 453Q884 582
814 656T606 731Q466 731 400 656T334 451Q334 328 404 254T603 179Z" />
<glyph unicode="7" horiz-adv-x="1036" d="M237 0L679 1258H75L77 1459H977V1302L505 0H237Z" />
<glyph unicode="8" horiz-adv-x="1151" d="M578 -21Q435 -21 321 24T135 164T64 389Q64 652 323 767Q92 877 92 1111Q92 1203 130 1276T234 1395T388 1466T578 1490Q790 1490 926 1391T1063 1111Q1063 880 849 767Q1090 650 1090 388Q1090 258 1020 164T835 24T578
-21ZM452 161T578 161T775 222T846 394Q846 504 772 576T578 679Q455 648 382 576T308 393Q308 283 380 222ZM578 835Q701 863 767 932T833 1110Q833 1200 761 1255T578 1310Q468 1310 395 1255T322 1110Q322 1002 390 932T578 835Z" />
<glyph unicode="9" horiz-adv-x="1215" d="M243 0L687 578Q620 555 568 555Q353 555 218 684T82 1020Q82 1234 230 1362T616 1490Q861 1490 1013 1359T1165 1009Q1165 883 1117 780T976 550L562 0H243ZM624 739Q763 739 829 816T896 1024Q896 1147 827 1219T629
1291Q496 1291 421 1216T345 1019Q345 889 415 814T624 739Z" />
<glyph unicode=":" horiz-adv-x="460" d="M100 -6V259H365V-6H100ZM100 841V1106H365V841H100Z" />
<glyph unicode=";" horiz-adv-x="448" d="M107 -322L163 246H389L265 -322H107ZM125 841V1105H389V841H125Z" />
<glyph unicode="&lt;" horiz-adv-x="1196" d="M1081 196L115 645V769L1082 1251V1045L377 712L1081 401V196Z" />
<glyph unicode="=" horiz-adv-x="1202" d="M93 357V548H1111V357H93ZM93 754V947H1111V754H93Z" />
<glyph unicode="&gt;" horiz-adv-x="1196" d="M119 197V403L823 712L119 1047V1253L1086 769V645L119 197Z" />
<glyph unicode="?" horiz-adv-x="887" d="M323 448Q333 527 366 608T438 754T516 880T580 1001T606 1113Q605 1201 551 1252T399 1303Q337 1303 279 1288T191 1257T121 1218L51 1384Q133 1437 221 1463T427 1490Q498 1490 565 1469T689 1407T780 1299T815 1148Q815
1080 791 1014T725 884T637 759T533 614T434 448H323ZM376 -18Q311 -18 266 27T221 134Q221 197 266 243T376 289Q440 289 484 243T528 134Q528 72 484 27T376 -18Z" />
<glyph unicode="@" horiz-adv-x="1699" d="M891 -205Q650 -205 464 -108T173 170T68 590Q68 761 130 911T302 1169T564 1338T893 1400Q1101 1400 1269 1313T1535 1066T1633 702Q1633 585 1596 482T1498 309T1357 197T1193 156Q1110 156 1060 209T1008 375Q970
285 901 228T749 171Q611 171 533 259T455 492Q455 635 514 758T682 957T926 1032Q1064 1032 1242 968Q1229 900 1200 762T1154 531T1137 388T1155 318T1215 299Q1284 299 1345 360T1442 514T1477 705Q1477 869 1402 995T1193 1188T892 1255Q757 1255 644 1210T456
1094T330 932T255 752T232 578Q232 426 284 303T426 101T635 -20T889 -62Q1182 -62 1391 92L1446 -16Q1215 -205 891 -205ZM752 312Q944 312 1029 748Q1041 812 1054 899Q999 910 941 910Q857 910 785 849T672 695T632 506Q632 422 661 367T752 312Z" />
<glyph unicode="A" horiz-adv-x="1359" d="M-3 0L536 1466H831L1362 0H1084L939 414H426L280 0H-3ZM494 616H870Q690 1193 685 1212L494 616Z" />
<glyph unicode="B" horiz-adv-x="1333" d="M158 0V1465H615Q906 1465 1049 1380T1192 1097Q1192 1065 1188 1034T1170 964T1133 892T1069 830T973 782Q1109 749 1181 656T1253 425Q1253 218 1107 109T701 0H158ZM429 196H664Q976 196 976 440Q976 563 898 617T657
671H429V196ZM429 860H661Q930 860 930 1065Q930 1180 853 1223T606 1266H429V860Z" />
<glyph unicode="C" horiz-adv-x="1301" d="M797 -21Q476 -21 288 181T100 739Q100 1077 296 1281T811 1486Q1068 1486 1246 1367L1161 1162Q990 1267 817 1267Q615 1267 498 1122T380 731Q380 477 493 338T817 199Q1001 199 1182 291L1218 79Q1050 -21 797 -21Z" />
<glyph unicode="D" horiz-adv-x="1514" d="M430 217H624Q875 217 1006 348T1137 732Q1137 1002 1002 1124T595 1247H430V217ZM159 0V1465H583Q775 1465 927 1421T1188 1289T1356 1061T1415 738Q1415 383 1201 192T608 0H159Z" />
<glyph unicode="E" horiz-adv-x="1152" d="M158 0V1465H1046L1035 1250H429V872H1005V657H429V216H1057L1048 0H158Z" />
<glyph unicode="F" horiz-adv-x="1103" d="M158 0V1465H1025L1015 1250H427V834H986V621H427V0H158Z" />
<glyph unicode="G" horiz-adv-x="1466" d="M812 -21Q477 -21 289 181T100 734Q100 957 188 1126T447 1391T851 1486Q1118 1486 1309 1371L1221 1169Q1039 1267 856 1267Q634 1267 507 1123T380 731Q380 485 493 342T824 199Q964 199 1078 243V583H771L773 796H1333V89Q1197
33 1076 6T812 -21Z" />
<glyph unicode="H" horiz-adv-x="1520" d="M158 0V1465H429V866H1091V1465H1362V0H1091V652H429V0H158Z" />
<glyph unicode="I" horiz-adv-x="602" d="M165 0V1465H436V0H165Z" />
<glyph unicode="J" horiz-adv-x="633" d="M-73 -321L-84 -108Q-36 -116 21 -116Q132 -116 171 -59T210 129V1469H482V147Q482 21 460 -65T384 -212T242 -301T22 -329Q-33 -329 -73 -321Z" />
<glyph unicode="K" horiz-adv-x="1348" d="M157 0V1465H429V805Q500 899 719 1156T981 1465H1302L748 806L1337 0H1019L541 657L429 563V0H157Z" />
<glyph unicode="L" horiz-adv-x="1071" d="M158 0V1465H429V216H1042L1034 0H158Z" />
<glyph unicode="M" horiz-adv-x="1841" d="M158 0V1465H478L921 407L1367 1465H1683V0H1433V724L1441 1139L1404 1029L1029 100H797L430 1034L393 1144L402 720V0H158Z" />
<glyph unicode="N" horiz-adv-x="1554" d="M158 0V1465H446Q524 1343 763 973T1054 523Q1069 500 1105 446T1157 368Q1150 711 1150 724V1465H1397V0H1105L444 1030L396 1109Q404 845 404 738V0H158Z" />
<glyph unicode="O" horiz-adv-x="1626" d="M601 200T814 200T1135 338T1244 730Q1244 986 1136 1127T815 1268Q602 1268 493 1127T383 730Q383 478 492 339ZM813 -21Q482 -21 291 179T99 733Q99 1088 291 1287T814 1486T1336 1287T1527 732Q1527 381 1335 180T813 -21Z" />
<glyph unicode="P" horiz-adv-x="1245" d="M151 0V1469H639Q812 1469 935 1425T1129 1280T1201 1029Q1201 924 1174 843T1085 695T911 592T639 556Q503 556 418 564V0H151ZM610 752Q693 752 754 768T850 809T905 871T932 942T939 1020Q939 1141 861 1204T641 1267H418V754Q430
752 610 752Z" />
<glyph unicode="Q" horiz-adv-x="1626" d="M1252 -478Q1169 -418 1065 -280T894 -17Q842 -21 813 -21Q482 -21 291 179T99 733Q99 1088 291 1287T814 1486T1336 1287T1527 732Q1527 480 1426 303T1140 43Q1293 -205 1426 -327L1252 -478ZM601 200T814 200T1135
338T1244 730Q1244 986 1136 1127T815 1268Q602 1268 493 1127T383 730Q383 478 492 339Z" />
<glyph unicode="R" horiz-adv-x="1394" d="M151 0V1469H694Q805 1469 886 1459T1041 1423T1160 1351T1232 1234T1259 1062Q1259 770 994 678Q1048 617 1128 452L1346 0H1050L879 383Q782 589 759 627Q742 628 646 628L419 630V0H151ZM718 824Q874 824 942 879T1010
1058Q1010 1166 941 1217T730 1268H419V825Q434 825 568 825T718 824Z" />
<glyph unicode="S" horiz-adv-x="1189" d="M569 -20Q304 -20 94 102L160 317Q254 265 364 233T580 201Q709 201 775 256T841 416Q841 554 657 607Q644 611 584 628T472 662T396 688Q101 792 101 1076Q101 1275 242 1383T618 1491Q883 1491 1075 1382L993 1184Q797
1272 629 1272Q508 1272 447 1230T381 1088Q381 966 502 929Q526 920 620 890T742 851Q943 785 1029 687T1116 414Q1116 205 968 93T569 -20Z" />
<glyph unicode="T" horiz-adv-x="1152" d="M441 0V1248H14V1465H1138V1248H713V0H441Z" />
<glyph unicode="U" horiz-adv-x="1468" d="M730 -21Q442 -21 293 122T144 527V1465H416V550Q416 367 490 283T735 199Q902 199 977 283T1052 551V1465H1323V525Q1323 266 1171 123T730 -21Z" />
<glyph unicode="V" horiz-adv-x="1321" d="M527 0L-6 1465H273L583 560Q601 513 666 285Q670 301 703 416T746 558Q758 592 898 1009T1051 1465H1327L801 0H527Z" />
<glyph unicode="W" horiz-adv-x="2051" d="M408 0L10 1465H280L564 325L898 1458H1157L1474 321L1764 1465H2034L1624 0H1343L1030 1073L687 0H408Z" />
<glyph unicode="X" horiz-adv-x="1337" d="M-11 0L502 750L27 1465H332L677 919L1032 1465H1321L836 746L1347 0H1034L664 570L286 0H-11Z" />
<glyph unicode="Y" horiz-adv-x="1256" d="M492 0V581L-15 1465H279L628 831L979 1465H1269L764 586V0H492Z" />
<glyph unicode="Z" horiz-adv-x="1209" d="M62 0V174L835 1249H89V1465H1155V1268L396 216H1160L1159 0H62Z" />
<glyph unicode="[" horiz-adv-x="651" d="M135 -266V1507H599V1327H387V-85H599V-266H135Z" />
<glyph unicode="\" horiz-adv-x="903" d="M649 -60L30 1462H261L878 -60H649Z" />
<glyph unicode="]" horiz-adv-x="651" d="M52 -266V-85H263V1327H52V1507H516V-266H52Z" />
<glyph unicode="^" horiz-adv-x="1154" d="M36 549L498 1471H627L1120 549H911L564 1217L245 549H36Z" />
<glyph unicode="_" horiz-adv-x="1155" d="M72 -318V-144H1086V-318H72Z" />
<glyph unicode="`" horiz-adv-x="514" d="M323 1195L-8 1578H298L486 1195H323Z" />
<glyph unicode="a" horiz-adv-x="1142" d="M423 -21Q270 -21 176 63T81 307Q81 478 193 560T531 665Q562 669 598 673T679 681T750 688V746Q750 846 704 891T564 937Q430 937 233 862Q232 865 200 953T167 1043Q361 1126 587 1126Q809 1126 910 1030T1011 717V0H817Q816
4 795 67T774 134Q692 54 614 17T423 -21ZM494 165Q585 165 652 208T749 314V526Q746 526 697 522T643 518Q484 504 410 458T336 310Q336 240 377 203T494 165Z" />
<glyph unicode="b" horiz-adv-x="1258" d="M722 -21Q610 -21 519 28T386 141L360 1H133V1504L395 1521V1181Q395 1082 389 956Q519 1126 728 1126Q938 1126 1057 970T1177 562Q1177 300 1054 140T722 -21ZM659 178Q776 178 846 277T916 558Q916 741 848 835T662
929Q396 929 393 570Q393 368 460 273T659 178Z" />
<glyph unicode="c" horiz-adv-x="1008" d="M614 -21Q362 -21 222 129T81 558Q81 828 228 977T617 1126Q810 1126 943 1043L881 856Q745 927 628 927Q495 927 419 832T342 555Q342 371 417 275T631 179Q775 179 908 264L933 65Q864 19 790 -1T614 -21Z" />
<glyph unicode="d" horiz-adv-x="1259" d="M542 -21Q327 -21 204 137T81 559Q81 815 203 970T541 1126Q775 1126 872 960Q862 1058 862 1149V1504L1124 1521V0H897L868 150Q851 123 837 104T794 59T734 18T652 -9T542 -21ZM604 178Q868 178 872 537Q872 740 804
833T601 926Q483 926 413 832T342 553Q342 370 412 274T604 178Z" />
<glyph unicode="e" horiz-adv-x="1157" d="M641 -21Q376 -21 229 131T81 553Q81 815 220 970T599 1126Q826 1126 951 984T1077 607Q1077 590 1077 552T1076 496H345Q349 342 429 258T651 173Q831 173 997 267L1034 81Q869 -21 641 -21ZM350 661H830Q830 795 769
867T600 939Q499 939 430 869T350 661Z" />
<glyph unicode="f" horiz-adv-x="760" d="M203 0V925H29L46 1079L203 1099V1160Q203 1260 221 1331T282 1452T394 1527T568 1552Q668 1552 772 1533L749 1338Q667 1349 620 1349Q536 1349 501 1309T465 1174V1099H723V925H465V0H203Z" />
<glyph unicode="g" horiz-adv-x="1267" d="M353 -492L338 -280H471Q702 -280 794 -219T886 7Q886 74 880 152Q854 116 831 93T772 46T687 12T574 0Q356 0 216 157T75 562Q75 694 114 802T220 981T374 1088T561 1126Q782 1126 890 965L908 1099H1142V78Q1142 -4
1134 -69T1106 -195T1054 -301T972 -383T857 -443T702 -479T504 -492H353ZM616 183Q887 183 890 546V584Q888 747 822 836T629 926Q485 926 411 828T337 562Q337 401 411 292T616 183Z" />
<glyph unicode="h" horiz-adv-x="1253" d="M133 0V1504L395 1521V1204Q395 1181 392 1077T389 970Q520 1126 741 1126Q925 1126 1026 1021T1128 696V0H866V667Q866 802 823 865T677 928Q589 928 521 884T419 769Q395 677 395 529V0H133Z" />
<glyph unicode="i" horiz-adv-x="541" d="M139 0V1099H401V0H139ZM139 1259V1483H402V1259H139Z" />
<glyph unicode="j" horiz-adv-x="527" d="M-48 -427L-77 -233H-19Q31 -233 63 -226T116 -205T147 -163T160 -103T164 -16V1099H426V26Q426 -56 420 -115T396 -227T350 -316T274 -377T163 -415T11 -427H-48ZM164 1259V1483H426V1259H164Z" />
<glyph unicode="k" horiz-adv-x="1173" d="M133 0V1504L395 1521V846L389 624Q390 625 409 644T431 665Q486 730 550 799T713 968T842 1099H1154L702 631L1183 0H866L504 499L395 413V0H133Z" />
<glyph unicode="l" horiz-adv-x="700" d="M518 -15Q405 -15 331 11T213 96T153 234T136 433V1504L398 1521V438Q398 290 433 238T569 185Q619 185 696 196L703 9Q702 9 679 4T634 -4T579 -11T518 -15Z" />
<glyph unicode="m" horiz-adv-x="1911" d="M133 0V1099H345L375 959Q395 984 413 1003T464 1047T533 1088T623 1115T738 1126Q869 1126 947 1073T1058 949Q1117 1034 1211 1080T1420 1126Q1609 1126 1697 1019T1786 702V0H1523V624Q1523 785 1488 856T1352 928Q1199
928 1132 790Q1104 729 1094 643V0H832V636Q832 783 793 855T652 927Q569 927 509 885T418 775Q395 674 395 533V0H133Z" />
<glyph unicode="n" horiz-adv-x="1254" d="M133 0V1099H344L373 960Q541 1126 746 1126Q938 1126 1033 1016T1129 695V0H866V663Q865 796 823 862T672 928Q587 928 517 885T414 775Q395 697 395 535V0H133Z" />
<glyph unicode="o" horiz-adv-x="1222" d="M612 178Q745 178 812 275T879 553Q879 736 812 832T610 928Q477 928 410 832T342 552Q342 372 410 275T612 178ZM605 -21Q361 -21 221 137T81 553Q81 819 221 972T616 1126Q862 1126 1001 970T1141 553Q1141 290 1000
135T605 -21Z" />
<glyph unicode="p" horiz-adv-x="1256" d="M133 -457V1099H358L386 945Q440 1032 529 1079T729 1127Q864 1127 966 1052T1122 848T1175 555Q1175 300 1052 140T717 -21Q613 -21 529 20T387 133Q395 -11 395 -29V-444L133 -457ZM661 179Q778 179 845 277T913 557Q913
742 845 835T656 928Q396 928 393 574Q393 370 460 275T661 179Z" />
<glyph unicode="q" horiz-adv-x="1259" d="M862 -457V8Q862 77 869 150Q765 -22 555 -22Q342 -22 212 138T82 555Q82 810 205 968T549 1126Q766 1126 874 959L895 1099H1125V-444L862 -457ZM606 177Q734 177 802 263T872 535Q872 739 805 832T603 926Q482 926
413 832T343 552Q343 368 413 273T606 177Z" />
<glyph unicode="r" horiz-adv-x="798" d="M134 0V1099H354L388 931Q496 1104 701 1104Q744 1104 771 1100L767 881Q727 887 684 887Q539 887 468 810T396 596V0H134Z" />
<glyph unicode="s" horiz-adv-x="985" d="M484 -20Q241 -20 95 63L122 260Q188 224 290 196T476 167Q563 167 611 199T661 295Q661 352 616 385T442 467Q398 483 385 488Q233 547 166 619T99 816Q99 966 207 1046T510 1126Q720 1126 879 1047L814 866Q657 939
515 939Q436 939 392 913T347 832Q347 781 390 753T558 678Q562 677 584 669T618 656Q769 601 840 525T911 325Q910 160 799 70T484 -20Z" />
<glyph unicode="t" horiz-adv-x="803" d="M572 -15Q460 -15 386 11T269 95T210 229T192 421V940H12L22 1082L210 1099L294 1397L454 1398V1099H727V940H454V416Q454 291 490 238T623 185Q680 185 745 195L752 7Q750 7 728 3T685 -5T632 -12T572 -15Z" />
<glyph unicode="u" horiz-adv-x="1163" d="M795 -21T581 -21T237 86T106 400V1099H369V410Q369 287 420 232T584 177Q694 177 744 231T795 410V1099H1057V400Q1057 194 926 87Z" />
<glyph unicode="v" horiz-adv-x="1125" d="M441 0L3 1099H281Q297 1054 382 820T496 500Q553 334 578 249Q578 250 595 314T627 434T647 503Q648 505 738 779T846 1099H1122L706 0H441Z" />
<glyph unicode="w" horiz-adv-x="1713" d="M346 0L13 1099H280L491 293Q498 316 605 686T726 1099H995Q1008 1057 1110 690T1220 296L1437 1099H1700L1356 0H1095Q1082 43 974 435T856 858Q836 785 729 418T604 0H346Z" />
<glyph unicode="x" horiz-adv-x="1158" d="M21 0L412 563L40 1099H337L581 725L832 1099H1124L749 564L1137 0H837L581 399L317 0H21Z" />
<glyph unicode="y" horiz-adv-x="1116" d="M191 -463Q127 -463 55 -455L42 -252Q88 -257 159 -257Q250 -257 305 -221T396 -93Q400 -83 436 20L-6 1099H274L563 302Q595 421 706 744T829 1099H1109Q652 -109 648 -119Q577 -304 469 -383T191 -463Z" />
<glyph unicode="z" horiz-adv-x="977" d="M65 0V159L609 917H91V1099H899V920L384 191H917V0H65Z" />
<glyph unicode="{" horiz-adv-x="786" d="M703 -287Q477 -287 377 -223T277 13V290Q277 410 230 457T52 505V719Q145 720 193 740T259 804T277 930V1221Q277 1306 303 1362T385 1451T517 1497T703 1511V1311Q596 1310 563 1274T529 1137V868Q528 767 479 710T317
610Q529 566 529 360V88Q529 -13 562 -49T703 -86V-287Z" />
<glyph unicode="|" horiz-adv-x="759" d="M278 -380V1538H481V-380H278Z" />
<glyph unicode="}" horiz-adv-x="787" d="M85 -287V-86Q192 -85 225 -50T259 88V360Q259 464 310 521T471 611Q362 645 311 705T259 868V1137Q259 1238 226 1274T85 1311V1511Q198 1511 273 1498T404 1452T485 1360T511 1212V929Q511 809 556 765T737 719V505Q605
505 558 459T511 290V4Q511 -162 411 -224T85 -287Z" />
<glyph unicode="~" horiz-adv-x="1297" d="M207 471L130 616Q226 811 417 811Q526 811 681 745Q827 681 900 681Q960 681 1015 713T1134 817L1205 682Q1162 602 1074 544T883 486Q818 486 761 503T618 560Q551 591 506 605T408 620Q286 620 207 471Z" />
<glyph unicode="&#xa0;" horiz-adv-x="541" />
<glyph unicode="&#xa1;" horiz-adv-x="446" d="M253 655L338 -58V-354H97V-58L187 655H253ZM222 1122Q287 1122 332 1077T377 970Q377 907 332 861T222 815Q158 815 114 861T69 970Q69 1032 113 1077T222 1122Z" />
<glyph unicode="&#xa2;" horiz-adv-x="1082" d="M573 -202V54Q349 71 216 223T82 636Q82 761 121 863T227 1033T383 1139T573 1184V1402H674V1181Q832 1168 934 1090L889 916Q851 942 792 964T674 992V242Q790 251 892 323L944 148Q825 64 674 54V-202H573ZM573
247V989Q462 969 396 878T329 628Q329 462 393 366T573 247Z" />
<glyph unicode="&#xa3;" horiz-adv-x="1149" d="M85 0L69 190Q170 233 211 293T252 469V659H67V838H252V943Q252 1066 276 1163T353 1334T494 1447T703 1487Q921 1487 1088 1347L985 1178Q911 1227 848 1252T713 1278Q501 1278 501 1017V838H892V659H501V509Q501
309 389 213Q397 214 536 214H1105L1097 0H85Z" />
<glyph unicode="&#xa4;" horiz-adv-x="1162" d="M1020 229L834 402Q721 317 581 317Q434 317 327 401L146 230L52 322L237 495Q161 602 161 732Q161 860 237 969L51 1144L146 1236L329 1063Q440 1149 581 1149T834 1061L1020 1236L1111 1142L927 969Q1002 861
1002 732Q1002 601 928 495L1109 323L1020 229ZM581 455Q699 455 781 536T864 732T781 928T581 1010Q465 1010 382 928T299 732Q299 617 381 536T581 455Z" />
<glyph unicode="&#xa5;" horiz-adv-x="1194" d="M471 0V289H124V442H471V583H125V735H392L-44 1459H240L599 838L958 1459H1237L809 735H1085V583H734V442H1085V289H734V0H471Z" />
<glyph unicode="&#xa6;" horiz-adv-x="817" d="M306 -379V340H509V-379H306ZM306 820V1538H509V820H306Z" />
<glyph unicode="&#xa7;" horiz-adv-x="1034" d="M664 -31T472 -31T138 37V228Q208 195 299 173T463 150Q549 150 602 175T663 250Q677 302 634 342T470 435Q386 469 329 500T225 571T156 662T133 776Q133 857 172 921T276 1026Q150 1114 150 1261Q150 1401 253
1475T532 1551Q707 1556 872 1493Q871 1486 854 1401T836 1309Q697 1370 556 1370Q380 1370 380 1264Q380 1214 427 1178T584 1096Q661 1065 716 1035T819 965T890 876T914 767Q914 603 776 509Q903 424 903 284Q903 132 784 51ZM607 589Q703 654 703 731Q703 797
637 844T444 940Q399 917 373 881T346 802Q346 746 397 701T546 614Q551 612 574 602T607 589Z" />
<glyph unicode="&#xa8;" horiz-adv-x="772" d="M78 1236V1490H273V1236H78ZM499 1236V1490H695V1236H499Z" />
<glyph unicode="&#xa9;" horiz-adv-x="1743" d="M854 254Q654 254 523 392T392 743Q392 880 449 993T613 1172T853 1238Q1038 1238 1160 1156L1111 1052Q998 1118 864 1118Q715 1118 626 1015T537 743Q537 576 627 475T869 374Q1002 374 1117 440L1161 336Q1037
254 854 254ZM867 78Q1056 78 1209 167T1448 407T1533 741Q1533 922 1448 1073T1209 1314T866 1404Q679 1404 527 1315T290 1074T205 742Q205 560 289 409T526 168T867 78ZM867 -22Q711 -22 569 35T320 191T152 433T89 741T151 1048T319 1291T567 1448T866 1505Q1023
1505 1166 1448T1416 1292T1586 1049T1649 741T1586 434T1417 191T1168 35T867 -22Z" />
<glyph unicode="&#xaa;" horiz-adv-x="757" d="M299 750Q203 750 139 806T75 963Q75 1011 91 1049T140 1111T208 1153T294 1180T384 1196T477 1208Q497 1210 506 1211V1243Q505 1319 476 1351T382 1384Q274 1384 133 1326L91 1436Q235 1514 399 1514Q520 1514
594 1456T669 1268V889Q669 787 670 764H535L518 849Q486 806 424 778T299 750ZM112 536V656H673V536H112ZM317 878Q368 878 418 909T506 995V1106Q456 1099 428 1095T363 1083T306 1066T267 1043T239 1011T231 968Q231 925 255 902T317 878Z" />
<glyph unicode="&#xab;" horiz-adv-x="1083" d="M388 136L74 546L84 589L391 987L598 934L318 562L593 190L388 136ZM812 136L489 558L814 987L1015 934L741 562L1011 190L812 136Z" />
<glyph unicode="&#xac;" horiz-adv-x="1287" d="M961 247V641H132V834H1152V247H961Z" />
<glyph unicode="&#xad;" horiz-adv-x="745" d="M76 380V584H671V380H76Z" />
<glyph unicode="&#xae;" horiz-adv-x="1735" d="M556 271V1226H856Q1214 1226 1214 964Q1214 854 1165 792T1000 705Q1012 690 1027 668T1061 614T1096 557T1136 486T1174 417T1216 341T1254 271H1089Q1063 317 968 499Q870 679 856 688H704V271H556ZM703 813H823Q872
813 906 816T972 828T1023 854T1053 897T1064 962Q1064 995 1058 1018T1035 1056T1002 1080T952 1093T891 1099T814 1100H703V813ZM865 78Q1054 78 1207 167T1444 407T1529 741Q1529 922 1445 1073T1207 1314T864 1404Q677 1404 525 1315T289 1074T205 742Q205
560 289 409T526 168T865 78ZM865 -22Q709 -22 567 35T320 191T152 433T89 741T151 1048T319 1291T566 1448T864 1505Q1021 1505 1164 1448T1413 1292T1582 1049T1645 741T1583 434T1414 191T1165 35T865 -22Z" />
<glyph unicode="&#xaf;" horiz-adv-x="912" d="M118 1377V1530H804V1377H118Z" />
<glyph unicode="&#xb0;" horiz-adv-x="850" d="M428 999Q494 999 542 1044T591 1165Q591 1238 543 1282T428 1326Q361 1326 312 1282T263 1165Q263 1090 312 1045T428 999ZM427 870Q282 870 197 958T111 1167Q111 1287 196 1371T427 1455Q570 1455 656 1371T742
1167T657 959T427 870Z" />
<glyph unicode="&#xb1;" horiz-adv-x="1288" d="M544 261V636H180V828H544V1196H743V828H1109V636H744V261H544ZM180 0V177H1109V0H180Z" />
<glyph unicode="&#xb2;" horiz-adv-x="834" d="M146 574V716Q305 822 420 948T536 1159Q536 1216 495 1249T399 1283T289 1251T201 1169L135 1289Q190 1361 258 1400T422 1439Q537 1439 618 1363T700 1163Q700 1099 683 1046T618 936T535 846T416 741Q396 724
386 715H701L686 574H146Z" />
<glyph unicode="&#xb3;" horiz-adv-x="800" d="M380 603Q235 603 125 685L174 811Q208 779 268 759T378 739Q447 739 486 774T525 877Q525 941 476 973T337 1005L260 1004V1140H339Q495 1140 495 1238Q495 1281 467 1307T382 1333Q329 1333 271 1314T179 1270L131
1381Q241 1470 391 1470Q507 1470 585 1413T664 1242Q661 1121 538 1081Q598 1058 640 1002T683 876Q683 747 596 675T380 603Z" />
<glyph unicode="&#xb4;" horiz-adv-x="619" d="M191 1195L362 1578H661L346 1195H191Z" />
<glyph unicode="&#xb6;" horiz-adv-x="1201" d="M419 -150V782Q266 795 172 896T78 1144Q78 1236 118 1303T231 1410T397 1467T607 1486H1026V1315H944V-151H778V1315H613V-151L419 -150Z" />
<glyph unicode="&#xb7;" horiz-adv-x="422" d="M90 488V740H332V488H90Z" />
<glyph unicode="&#xb8;" horiz-adv-x="589" d="M62 -357L185 24H329L271 -357H62Z" />
<glyph unicode="&#xb9;" horiz-adv-x="743" d="M151 601V749H293V1304Q288 1301 213 1266T132 1228V1376Q134 1377 187 1403T288 1455T340 1484H484V749H624V601H151Z" />
<glyph unicode="&#xba;" horiz-adv-x="865" d="M439 899Q533 899 581 961T629 1125Q629 1232 581 1295T435 1358Q341 1358 293 1295T245 1129Q245 1022 293 961T439 899ZM439 744Q265 744 167 850T69 1131Q69 1301 169 1406T438 1512Q608 1512 705 1406T803 1127Q803
958 705 851T439 744Z" />
<glyph unicode="&#xbb;" horiz-adv-x="1168" d="M314 136L113 190L387 562L116 934L316 987L640 565L314 136ZM749 136L545 190L822 562L550 934L753 987L1071 565L749 136Z" />
<glyph unicode="&#xbc;" horiz-adv-x="1731" d="M104 601V749H246V1304Q241 1301 165 1266T85 1228V1376Q287 1477 294 1484H437V749H578V601H104ZM1388 10V182H985V324L1372 865H1547V318H1662L1664 182H1546L1545 10H1388ZM305 0L1327 1471H1521L506 0H305ZM1176
318H1386Q1386 639 1387 646L1176 318Z" />
<glyph unicode="&#xbd;" horiz-adv-x="1805" d="M125 601V733H267V1321Q224 1293 106 1228V1376Q122 1384 201 1430T288 1484H458V733H599V601H125ZM1136 -29L1137 107Q1173 138 1234 188T1331 267T1412 339T1482 413T1524 482T1542 555Q1542 614 1500 649T1402
684Q1343 684 1286 659T1192 587L1126 704Q1169 769 1247 802T1424 835Q1541 835 1625 761T1710 561Q1710 517 1702 479T1671 402T1628 337T1566 270T1497 208T1414 138Q1388 116 1374 105H1709L1693 -29H1136ZM310 0L1331 1471H1529L510 0H310Z" />
<glyph unicode="&#xbe;" horiz-adv-x="1683" d="M343 621Q200 621 88 703L137 825Q170 795 226 778T335 761Q403 761 443 793T483 889Q483 1005 301 1005L224 1004V1140H302Q458 1140 458 1239Q458 1281 429 1305T341 1330Q288 1330 231 1313T141 1270L79 1377Q131
1420 205 1445T356 1471Q472 1471 553 1413T634 1244Q634 1233 629 1214T613 1169T574 1118T510 1081Q571 1059 611 1005T652 883Q652 800 608 739T495 650T343 621ZM1339 11V190H935V332L1322 889H1498V325H1612L1614 190H1497L1496 11H1339ZM279 0L1299 1471H1495L482
0H279ZM1126 325H1336Q1336 651 1337 665L1126 325Z" />
<glyph unicode="&#xbf;" horiz-adv-x="887" d="M541 751Q531 672 498 591T426 445T348 319T284 198T258 86Q259 -2 313 -53T465 -104Q527 -104 585 -89T673 -58T743 -19L813 -185Q731 -238 643 -264T437 -291Q366 -291 299 -270T175 -208T84 -100T49 51Q49 119
73 185T139 315T227 440T331 585T430 751H541ZM488 1217Q553 1217 598 1172T643 1065Q643 1002 598 956T488 910Q424 910 380 956T336 1065Q336 1127 380 1172T488 1217Z" />
<glyph unicode="&#xc0;" horiz-adv-x="1359" d="M598 1608L267 1991H573L761 1608H598ZM-3 0L536 1466H831L1362 0H1084L939 414H426L280 0H-3ZM494 616H870Q690 1193 685 1212L494 616Z" />
<glyph unicode="&#xc1;" horiz-adv-x="1359" d="M602 1608L773 1991H1072L757 1608H602ZM-3 0L536 1466H831L1362 0H1084L939 414H426L280 0H-3ZM494 616H870Q690 1193 685 1212L494 616Z" />
<glyph unicode="&#xc2;" horiz-adv-x="1359" d="M325 1608L575 1991H783L1034 1608H850L676 1826L504 1608H325ZM-3 0L536 1466H831L1362 0H1084L939 414H426L280 0H-3ZM494 616H870Q690 1193 685 1212L494 616Z" />
<glyph unicode="&#xc3;" horiz-adv-x="1359" d="M336 1608Q336 1644 338 1673T351 1736T380 1793T430 1831T508 1847Q566 1847 637 1826T761 1784T829 1763Q876 1763 876 1847H1023Q1023 1812 1021 1785T1009 1723T983 1664T934 1625T857 1608Q798 1608 679 1653T530
1698Q481 1698 480 1608H336ZM-3 0L536 1466H831L1362 0H1084L939 414H426L280 0H-3ZM494 616H870Q690 1193 685 1212L494 616Z" />
<glyph unicode="&#xc4;" horiz-adv-x="1359" d="M371 1608V1862H566V1608H371ZM792 1608V1862H988V1608H792ZM-3 0L536 1466H831L1362 0H1084L939 414H426L280 0H-3ZM494 616H870Q690 1193 685 1212L494 616Z" />
<glyph unicode="&#xc5;" horiz-adv-x="1359" d="M629 1566T680 1566T758 1598T786 1676Q786 1721 758 1754T680 1788Q629 1788 601 1756T573 1676Q573 1630 601 1598ZM780 1473T680 1473T520 1533T459 1677Q459 1760 518 1818T680 1877Q781 1877 840 1819T900
1677Q900 1593 840 1533ZM-3 0L536 1466H831L1362 0H1084L939 414H426L280 0H-3ZM494 616H870Q690 1193 685 1212L494 616Z" />
<glyph unicode="&#xc6;" horiz-adv-x="2021" d="M38 0L882 1481H1891L1876 1285H1269L1302 851H1851V655H1322L1361 196H1926L1912 0H1099L1069 375H545L340 0H38ZM638 572H1053L1003 1235L638 572Z" />
<glyph unicode="&#xc7;" horiz-adv-x="1301" d="M595 -389L718 -8H862L804 -389H595ZM797 -21Q476 -21 288 181T100 739Q100 1077 296 1281T811 1486Q1068 1486 1246 1367L1161 1162Q990 1267 817 1267Q615 1267 498 1122T380 731Q380 477 493 338T817 199Q1001
199 1182 291L1218 79Q1050 -21 797 -21Z" />
<glyph unicode="&#xc8;" horiz-adv-x="1152" d="M526 1608L195 1991H501L689 1608H526ZM158 0V1465H1046L1035 1250H429V872H1005V657H429V216H1057L1048 0H158Z" />
<glyph unicode="&#xc9;" horiz-adv-x="1152" d="M530 1608L701 1991H1000L685 1608H530ZM158 0V1465H1046L1035 1250H429V872H1005V657H429V216H1057L1048 0H158Z" />
<glyph unicode="&#xca;" horiz-adv-x="1152" d="M253 1608L503 1991H711L962 1608H778L604 1826L432 1608H253ZM158 0V1465H1046L1035 1250H429V872H1005V657H429V216H1057L1048 0H158Z" />
<glyph unicode="&#xcb;" horiz-adv-x="1152" d="M299 1608V1862H494V1608H299ZM720 1608V1862H916V1608H720ZM158 0V1465H1046L1035 1250H429V872H1005V657H429V216H1057L1048 0H158Z" />
<glyph unicode="&#xcc;" horiz-adv-x="602" d="M219 1608L-112 1991H194L382 1608H219ZM165 0V1465H436V0H165Z" />
<glyph unicode="&#xcd;" horiz-adv-x="602" d="M223 1608L394 1991H693L378 1608H223ZM165 0V1465H436V0H165Z" />
<glyph unicode="&#xce;" horiz-adv-x="602" d="M-54 1608L196 1991H404L655 1608H471L297 1826L125 1608H-54ZM165 0V1465H436V0H165Z" />
<glyph unicode="&#xcf;" horiz-adv-x="602" d="M-8 1608V1862H187V1608H-8ZM413 1608V1862H609V1608H413ZM165 0V1465H436V0H165Z" />
<glyph unicode="&#xd0;" horiz-adv-x="1524" d="M398 206H633Q892 206 1031 340T1171 725Q1171 874 1131 977T1009 1142T814 1229T542 1256H398V829H597V650H398V206ZM131 1V650H6V829H131V1463H522Q1441 1463 1441 729Q1441 553 1381 414T1212 185T952 48T617 1H131Z" />
<glyph unicode="&#xd1;" horiz-adv-x="1554" d="M434 1608Q434 1644 436 1673T449 1736T478 1793T528 1831T606 1847Q664 1847 735 1826T859 1784T927 1763Q974 1763 974 1847H1121Q1121 1812 1119 1785T1107 1723T1081 1664T1032 1625T955 1608Q896 1608 777
1653T628 1698Q579 1698 578 1608H434ZM158 0V1465H446Q524 1343 763 973T1054 523Q1069 500 1105 446T1157 368Q1150 711 1150 724V1465H1397V0H1105L444 1030L396 1109Q404 845 404 738V0H158Z" />
<glyph unicode="&#xd2;" horiz-adv-x="1626" d="M731 1608L400 1991H706L894 1608H731ZM601 200T814 200T1135 338T1244 730Q1244 986 1136 1127T815 1268Q602 1268 493 1127T383 730Q383 478 492 339ZM813 -21Q482 -21 291 179T99 733Q99 1088 291 1287T814 1486T1336
1287T1527 732Q1527 381 1335 180T813 -21Z" />
<glyph unicode="&#xd3;" horiz-adv-x="1626" d="M735 1608L906 1991H1205L890 1608H735ZM601 200T814 200T1135 338T1244 730Q1244 986 1136 1127T815 1268Q602 1268 493 1127T383 730Q383 478 492 339ZM813 -21Q482 -21 291 179T99 733Q99 1088 291 1287T814
1486T1336 1287T1527 732Q1527 381 1335 180T813 -21Z" />
<glyph unicode="&#xd4;" horiz-adv-x="1626" d="M459 1608L709 1991H917L1168 1608H984L810 1826L638 1608H459ZM601 200T814 200T1135 338T1244 730Q1244 986 1136 1127T815 1268Q602 1268 493 1127T383 730Q383 478 492 339ZM813 -21Q482 -21 291 179T99 733Q99
1088 291 1287T814 1486T1336 1287T1527 732Q1527 381 1335 180T813 -21Z" />
<glyph unicode="&#xd5;" horiz-adv-x="1626" d="M470 1608Q470 1644 472 1673T485 1736T514 1793T564 1831T642 1847Q700 1847 771 1826T895 1784T963 1763Q1010 1763 1010 1847H1157Q1157 1812 1155 1785T1143 1723T1117 1664T1068 1625T991 1608Q932 1608 813
1653T664 1698Q615 1698 614 1608H470ZM601 200T814 200T1135 338T1244 730Q1244 986 1136 1127T815 1268Q602 1268 493 1127T383 730Q383 478 492 339ZM813 -21Q482 -21 291 179T99 733Q99 1088 291 1287T814 1486T1336 1287T1527 732Q1527 381 1335 180T813 -21Z"
/>
<glyph unicode="&#xd6;" horiz-adv-x="1626" d="M504 1608V1862H699V1608H504ZM925 1608V1862H1121V1608H925ZM601 200T814 200T1135 338T1244 730Q1244 986 1136 1127T815 1268Q602 1268 493 1127T383 730Q383 478 492 339ZM813 -21Q482 -21 291 179T99 733Q99
1088 291 1287T814 1486T1336 1287T1527 732Q1527 381 1335 180T813 -21Z" />
<glyph unicode="&#xd7;" horiz-adv-x="1395" d="M412 147L278 283L569 583L278 882L412 1020L713 725L1013 1020L1149 881L857 583Q898 543 1008 429T1149 284L1013 147L713 441L412 147Z" />
<glyph unicode="&#xd8;" horiz-adv-x="1624" d="M470 -211L370 -169L466 52Q286 138 185 312T84 730Q84 905 138 1047T289 1285T521 1433T816 1485Q953 1485 1073 1447L1166 1660L1272 1619L1179 1404Q1351 1315 1447 1142T1543 730Q1543 558 1489 417T1339 180T1108
32T812 -21Q684 -21 568 13L470 -211ZM557 260L984 1244Q905 1271 815 1271Q591 1271 474 1124T356 726Q356 565 407 445T557 260ZM815 191Q1040 191 1157 334T1274 726Q1274 885 1226 1005T1085 1192L657 213Q726 191 815 191Z" />
<glyph unicode="&#xd9;" horiz-adv-x="1468" d="M652 1608L321 1991H627L815 1608H652ZM730 -21Q442 -21 293 122T144 527V1465H416V550Q416 367 490 283T735 199Q902 199 977 283T1052 551V1465H1323V525Q1323 266 1171 123T730 -21Z" />
<glyph unicode="&#xda;" horiz-adv-x="1468" d="M656 1608L827 1991H1126L811 1608H656ZM730 -21Q442 -21 293 122T144 527V1465H416V550Q416 367 490 283T735 199Q902 199 977 283T1052 551V1465H1323V525Q1323 266 1171 123T730 -21Z" />
<glyph unicode="&#xdb;" horiz-adv-x="1468" d="M379 1608L629 1991H837L1088 1608H904L730 1826L558 1608H379ZM730 -21Q442 -21 293 122T144 527V1465H416V550Q416 367 490 283T735 199Q902 199 977 283T1052 551V1465H1323V525Q1323 266 1171 123T730 -21Z" />
<glyph unicode="&#xdc;" horiz-adv-x="1468" d="M425 1608V1862H620V1608H425ZM846 1608V1862H1042V1608H846ZM730 -21Q442 -21 293 122T144 527V1465H416V550Q416 367 490 283T735 199Q902 199 977 283T1052 551V1465H1323V525Q1323 266 1171 123T730 -21Z" />
<glyph unicode="&#xdd;" horiz-adv-x="1256" d="M549 1608L720 1991H1019L704 1608H549ZM492 0V581L-15 1465H279L628 831L979 1465H1269L764 586V0H492Z" />
<glyph unicode="&#xde;" horiz-adv-x="1327" d="M178 11V1454H400V1229H687Q817 1229 921 1205T1105 1129T1230 990T1274 785Q1274 573 1122 455T724 337L400 339V11H178ZM401 534H737Q886 534 968 602T1050 793Q1050 928 965 990T710 1052H400L401 534Z" />
<glyph unicode="&#xdf;" horiz-adv-x="1259" d="M108 0V1024Q108 1246 230 1368T583 1490Q676 1490 756 1469T900 1405T999 1296T1035 1144Q1035 1083 1014 1033T945 937T866 871T769 808Q760 802 755 799Q777 786 824 762T900 721T973 678T1045 627T1106 571T1158
506T1189 431T1202 344Q1202 229 1148 150T1003 36T794 0H502L527 179H767Q851 179 897 223T943 345Q943 391 922 430T858 503T778 558T679 612T589 663Q502 716 502 786Q502 849 573 903Q591 916 629 942T689 985T735 1027T773 1081T785 1144Q785 1217 729 1258T582
1299Q516 1299 472 1280T405 1221T372 1134T363 1016V0H108Z" />
<glyph unicode="&#xe0;" horiz-adv-x="1142" d="M465 1248L134 1631H440L628 1248H465ZM423 -21Q270 -21 176 63T81 307Q81 478 193 560T531 665Q562 669 598 673T679 681T750 688V746Q750 846 704 891T564 937Q430 937 233 862Q232 865 200 953T167 1043Q361
1126 587 1126Q809 1126 910 1030T1011 717V0H817Q816 4 795 67T774 134Q692 54 614 17T423 -21ZM494 165Q585 165 652 208T749 314V526Q746 526 697 522T643 518Q484 504 410 458T336 310Q336 240 377 203T494 165Z" />
<glyph unicode="&#xe1;" horiz-adv-x="1142" d="M469 1248L640 1631H939L624 1248H469ZM423 -21Q270 -21 176 63T81 307Q81 478 193 560T531 665Q562 669 598 673T679 681T750 688V746Q750 846 704 891T564 937Q430 937 233 862Q232 865 200 953T167 1043Q361
1126 587 1126Q809 1126 910 1030T1011 717V0H817Q816 4 795 67T774 134Q692 54 614 17T423 -21ZM494 165Q585 165 652 208T749 314V526Q746 526 697 522T643 518Q484 504 410 458T336 310Q336 240 377 203T494 165Z" />
<glyph unicode="&#xe2;" horiz-adv-x="1142" d="M191 1248L441 1631H649L900 1248H716L542 1466L370 1248H191ZM423 -21Q270 -21 176 63T81 307Q81 478 193 560T531 665Q562 669 598 673T679 681T750 688V746Q750 846 704 891T564 937Q430 937 233 862Q232 865
200 953T167 1043Q361 1126 587 1126Q809 1126 910 1030T1011 717V0H817Q816 4 795 67T774 134Q692 54 614 17T423 -21ZM494 165Q585 165 652 208T749 314V526Q746 526 697 522T643 518Q484 504 410 458T336 310Q336 240 377 203T494 165Z" />
<glyph unicode="&#xe3;" horiz-adv-x="1142" d="M202 1248Q202 1284 204 1313T217 1376T246 1433T296 1471T374 1487Q432 1487 503 1466T627 1424T695 1403Q742 1403 742 1487H889Q889 1452 887 1425T875 1363T849 1304T800 1265T723 1248Q664 1248 545 1293T396
1338Q347 1338 346 1248H202ZM423 -21Q270 -21 176 63T81 307Q81 478 193 560T531 665Q562 669 598 673T679 681T750 688V746Q750 846 704 891T564 937Q430 937 233 862Q232 865 200 953T167 1043Q361 1126 587 1126Q809 1126 910 1030T1011 717V0H817Q816 4 795
67T774 134Q692 54 614 17T423 -21ZM494 165Q585 165 652 208T749 314V526Q746 526 697 522T643 518Q484 504 410 458T336 310Q336 240 377 203T494 165Z" />
<glyph unicode="&#xe4;" horiz-adv-x="1142" d="M238 1248V1502H433V1248H238ZM659 1248V1502H855V1248H659ZM423 -21Q270 -21 176 63T81 307Q81 478 193 560T531 665Q562 669 598 673T679 681T750 688V746Q750 846 704 891T564 937Q430 937 233 862Q232 865 200
953T167 1043Q361 1126 587 1126Q809 1126 910 1030T1011 717V0H817Q816 4 795 67T774 134Q692 54 614 17T423 -21ZM494 165Q585 165 652 208T749 314V526Q746 526 697 522T643 518Q484 504 410 458T336 310Q336 240 377 203T494 165Z" />
<glyph unicode="&#xe5;" horiz-adv-x="1142" d="M495 1341T546 1341T624 1373T652 1451Q652 1496 624 1529T546 1563Q495 1563 467 1531T439 1451Q439 1405 467 1373ZM646 1248T546 1248T386 1308T325 1452Q325 1535 384 1593T546 1652Q647 1652 706 1594T766
1452Q766 1368 706 1308ZM423 -21Q270 -21 176 63T81 307Q81 478 193 560T531 665Q562 669 598 673T679 681T750 688V746Q750 846 704 891T564 937Q430 937 233 862Q232 865 200 953T167 1043Q361 1126 587 1126Q809 1126 910 1030T1011 717V0H817Q816 4 795 67T774
134Q692 54 614 17T423 -21ZM494 165Q585 165 652 208T749 314V526Q746 526 697 522T643 518Q484 504 410 458T336 310Q336 240 377 203T494 165Z" />
<glyph unicode="&#xe6;" horiz-adv-x="1679" d="M411 -22Q258 -22 165 74T72 317Q72 362 80 398T110 462T154 510T217 547T292 574T386 594T489 609T608 623L693 630V747Q693 850 654 897T507 949Q366 949 183 872L134 1052Q309 1135 523 1135Q649 1135 734 1090T848
959Q905 1038 999 1086T1209 1135Q1314 1135 1394 1094T1520 981T1590 819T1613 625Q1613 581 1574 561T1456 537Q1263 526 941 500Q948 339 1021 254T1232 168Q1322 168 1399 192T1519 249L1591 87Q1442 -21 1216 -21Q966 -21 837 138Q662 -22 411 -22ZM449 150Q584
150 744 273Q732 297 716 360T698 475Q695 475 652 470T607 464Q541 456 499 449T416 429T354 401T319 361T306 305Q306 230 342 190T449 150ZM944 644L1380 683Q1382 697 1382 714Q1380 944 1207 944Q1160 944 1118 929T1038 881T975 788T944 644Z" />
<glyph unicode="&#xe7;" horiz-adv-x="1008" d="M437 -389L560 -8H704L646 -389H437ZM614 -21Q362 -21 222 129T81 558Q81 828 228 977T617 1126Q810 1126 943 1043L881 856Q745 927 628 927Q495 927 419 832T342 555Q342 371 417 275T631 179Q775 179 908 264L933
65Q864 19 790 -1T614 -21Z" />
<glyph unicode="&#xe8;" horiz-adv-x="1157" d="M497 1248L166 1631H472L660 1248H497ZM641 -21Q376 -21 229 131T81 553Q81 815 220 970T599 1126Q826 1126 951 984T1077 607Q1077 590 1077 552T1076 496H345Q349 342 429 258T651 173Q831 173 997 267L1034 81Q869
-21 641 -21ZM350 661H830Q830 795 769 867T600 939Q499 939 430 869T350 661Z" />
<glyph unicode="&#xe9;" horiz-adv-x="1157" d="M501 1248L672 1631H971L656 1248H501ZM641 -21Q376 -21 229 131T81 553Q81 815 220 970T599 1126Q826 1126 951 984T1077 607Q1077 590 1077 552T1076 496H345Q349 342 429 258T651 173Q831 173 997 267L1034 81Q869
-21 641 -21ZM350 661H830Q830 795 769 867T600 939Q499 939 430 869T350 661Z" />
<glyph unicode="&#xea;" horiz-adv-x="1157" d="M225 1248L475 1631H683L934 1248H750L576 1466L404 1248H225ZM641 -21Q376 -21 229 131T81 553Q81 815 220 970T599 1126Q826 1126 951 984T1077 607Q1077 590 1077 552T1076 496H345Q349 342 429 258T651 173Q831
173 997 267L1034 81Q869 -21 641 -21ZM350 661H830Q830 795 769 867T600 939Q499 939 430 869T350 661Z" />
<glyph unicode="&#xeb;" horiz-adv-x="1157" d="M270 1248V1502H465V1248H270ZM691 1248V1502H887V1248H691ZM641 -21Q376 -21 229 131T81 553Q81 815 220 970T599 1126Q826 1126 951 984T1077 607Q1077 590 1077 552T1076 496H345Q349 342 429 258T651 173Q831
173 997 267L1034 81Q869 -21 641 -21ZM350 661H830Q830 795 769 867T600 939Q499 939 430 869T350 661Z" />
<glyph unicode="&#xec;" horiz-adv-x="548" d="M175 1248L-156 1631H150L338 1248H175ZM129 0V1098H384V0H129Z" />
<glyph unicode="&#xed;" horiz-adv-x="548" d="M435 1248L606 1631H905L590 1248H435ZM129 0V1098H384V0H129Z" />
<glyph unicode="&#xee;" horiz-adv-x="548" d="M-98 1248L152 1631H360L611 1248H427L253 1466L81 1248H-98ZM129 0V1098H384V0H129Z" />
<glyph unicode="&#xef;" horiz-adv-x="548" d="M-52 1248V1502H143V1248H-52ZM369 1248V1502H565V1248H369ZM129 0V1098H384V0H129Z" />
<glyph unicode="&#xf0;" horiz-adv-x="1226" d="M626 -21Q383 -21 234 114T84 467Q84 695 218 824T581 953Q636 953 730 924Q722 939 629 1050T505 1193L256 1092L189 1226L394 1309L191 1509H489L608 1396L858 1496L927 1364L716 1280Q940 1032 1047 858Q1159
674 1159 481Q1159 376 1127 287T1030 128T863 19T626 -21ZM625 178Q766 178 842 257T919 472Q919 608 841 691T619 774T400 695T323 478Q323 344 403 261T625 178Z" />
<glyph unicode="&#xf1;" horiz-adv-x="1254" d="M288 1248Q288 1284 290 1313T303 1376T332 1433T382 1471T460 1487Q518 1487 589 1466T713 1424T781 1403Q828 1403 828 1487H975Q975 1452 973 1425T961 1363T935 1304T886 1265T809 1248Q750 1248 631 1293T482
1338Q433 1338 432 1248H288ZM133 0V1099H344L373 960Q541 1126 746 1126Q938 1126 1033 1016T1129 695V0H866V663Q865 796 823 862T672 928Q587 928 517 885T414 775Q395 697 395 535V0H133Z" />
<glyph unicode="&#xf2;" horiz-adv-x="1222" d="M529 1248L198 1631H504L692 1248H529ZM612 178Q745 178 812 275T879 553Q879 736 812 832T610 928Q477 928 410 832T342 552Q342 372 410 275T612 178ZM605 -21Q361 -21 221 137T81 553Q81 819 221 972T616 1126Q862
1126 1001 970T1141 553Q1141 290 1000 135T605 -21Z" />
<glyph unicode="&#xf3;" horiz-adv-x="1222" d="M533 1248L704 1631H1003L688 1248H533ZM612 178Q745 178 812 275T879 553Q879 736 812 832T610 928Q477 928 410 832T342 552Q342 372 410 275T612 178ZM605 -21Q361 -21 221 137T81 553Q81 819 221 972T616 1126Q862
1126 1001 970T1141 553Q1141 290 1000 135T605 -21Z" />
<glyph unicode="&#xf4;" horiz-adv-x="1222" d="M257 1248L507 1631H715L966 1248H782L608 1466L436 1248H257ZM612 178Q745 178 812 275T879 553Q879 736 812 832T610 928Q477 928 410 832T342 552Q342 372 410 275T612 178ZM605 -21Q361 -21 221 137T81 553Q81
819 221 972T616 1126Q862 1126 1001 970T1141 553Q1141 290 1000 135T605 -21Z" />
<glyph unicode="&#xf5;" horiz-adv-x="1222" d="M268 1248Q268 1284 270 1313T283 1376T312 1433T362 1471T440 1487Q498 1487 569 1466T693 1424T761 1403Q808 1403 808 1487H955Q955 1452 953 1425T941 1363T915 1304T866 1265T789 1248Q730 1248 611 1293T462
1338Q413 1338 412 1248H268ZM612 178Q745 178 812 275T879 553Q879 736 812 832T610 928Q477 928 410 832T342 552Q342 372 410 275T612 178ZM605 -21Q361 -21 221 137T81 553Q81 819 221 972T616 1126Q862 1126 1001 970T1141 553Q1141 290 1000 135T605 -21Z"
/>
<glyph unicode="&#xf6;" horiz-adv-x="1222" d="M302 1248V1502H497V1248H302ZM723 1248V1502H919V1248H723ZM612 178Q745 178 812 275T879 553Q879 736 812 832T610 928Q477 928 410 832T342 552Q342 372 410 275T612 178ZM605 -21Q361 -21 221 137T81 553Q81
819 221 972T616 1126Q862 1126 1001 970T1141 553Q1141 290 1000 135T605 -21Z" />
<glyph unicode="&#xf7;" horiz-adv-x="1456" d="M590 21V281H865V21H590ZM178 489V676H1274V489H178ZM590 875V1134H874V875H590Z" />
<glyph unicode="&#xf8;" horiz-adv-x="1193" d="M302 -215L240 -181L336 41Q207 107 139 240T71 550Q71 810 209 964T601 1119Q707 1119 800 1089L894 1269L963 1246L870 1059Q995 993 1060 862T1125 552Q1125 296 987 140T595 -16Q488 -16 403 14L302 -215ZM420
231L721 913Q668 940 598 940Q464 940 391 839T318 551Q318 330 420 231ZM599 163Q734 163 806 265T878 551Q878 769 783 867L482 188Q532 163 599 163Z" />
<glyph unicode="&#xf9;" horiz-adv-x="1163" d="M500 1248L169 1631H475L663 1248H500ZM795 -21T581 -21T237 86T106 400V1099H369V410Q369 287 420 232T584 177Q694 177 744 231T795 410V1099H1057V400Q1057 194 926 87Z" />
<glyph unicode="&#xfa;" horiz-adv-x="1163" d="M504 1248L675 1631H974L659 1248H504ZM795 -21T581 -21T237 86T106 400V1099H369V410Q369 287 420 232T584 177Q694 177 744 231T795 410V1099H1057V400Q1057 194 926 87Z" />
<glyph unicode="&#xfb;" horiz-adv-x="1163" d="M227 1248L477 1631H685L936 1248H752L578 1466L406 1248H227ZM795 -21T581 -21T237 86T106 400V1099H369V410Q369 287 420 232T584 177Q694 177 744 231T795 410V1099H1057V400Q1057 194 926 87Z" />
<glyph unicode="&#xfc;" horiz-adv-x="1163" d="M273 1248V1502H468V1248H273ZM694 1248V1502H890V1248H694ZM795 -21T581 -21T237 86T106 400V1099H369V410Q369 287 420 232T584 177Q694 177 744 231T795 410V1099H1057V400Q1057 194 926 87Z" />
<glyph unicode="&#xfd;" horiz-adv-x="1116" d="M474 1248L645 1631H944L629 1248H474ZM191 -463Q127 -463 55 -455L42 -252Q88 -257 159 -257Q250 -257 305 -221T396 -93Q400 -83 436 20L-6 1099H274L563 302Q595 421 706 744T829 1099H1109Q652 -109 648 -119Q577
-304 469 -383T191 -463Z" />
<glyph unicode="&#xfe;" horiz-adv-x="1288" d="M160 -431V1205L155 1498H385V938Q412 977 501 1024T711 1072Q832 1072 927 1029T1083 911T1174 736T1206 521Q1206 432 1188 353T1132 206T1038 88T902 10T726 -19Q654 -19 590 -3T484 38T419 82T385 118V-431H160ZM694
176Q769 176 824 204T912 283T959 396T975 531T960 665T913 777T826 856T696 885Q540 885 462 789T384 531Q384 368 460 272T694 176Z" />
<glyph unicode="&#xff;" horiz-adv-x="1116" d="M243 1248V1502H438V1248H243ZM664 1248V1502H860V1248H664ZM191 -463Q127 -463 55 -455L42 -252Q88 -257 159 -257Q250 -257 305 -221T396 -93Q400 -83 436 20L-6 1099H274L563 302Q595 421 706 744T829 1099H1109Q652
-109 648 -119Q577 -304 469 -383T191 -463Z" />
<glyph unicode="&#x2013;" horiz-adv-x="1271" d="M89 461V646H1188V461H89Z" />
<glyph unicode="&#x2014;" horiz-adv-x="2151" d="M30 461V646H2116V461H30Z" />
<glyph unicode="&#x2018;" horiz-adv-x="442" d="M386 1466L278 973H60L219 1466H386Z" />
<glyph unicode="&#x2019;" horiz-adv-x="442" d="M60 973L168 1466H386L227 973H60Z" />
<glyph unicode="&#x201a;" horiz-adv-x="557" d="M116 -280L224 212H444L285 -280H116Z" />
<glyph unicode="&#x201c;" horiz-adv-x="953" d="M795 1466L687 973H477L625 1466H795ZM495 1466L395 973H176L336 1466H495Z" />
<glyph unicode="&#x201d;" horiz-adv-x="953" d="M176 973L284 1466H494L346 973H176ZM476 973L576 1466H795L635 973H476Z" />
<glyph unicode="&#x201e;" horiz-adv-x="1005" d="M158 -280L269 212H500L331 -280H158ZM512 -280L630 212H855L692 -280H512Z" />
<glyph unicode="&#x2022;" horiz-adv-x="995" d="M651 355T497 355T243 451T143 692Q143 838 246 937T503 1037Q655 1037 755 941T856 699Q856 552 754 454Z" />
<glyph unicode="&#x2039;" horiz-adv-x="584" d="M321 174L55 568L327 965H529L268 568L522 174H321Z" />
<glyph unicode="&#x203a;" horiz-adv-x="584" d="M56 174L316 569L63 965H263L531 569L257 174H56Z" />
</font>
</defs>
</svg>
