<?xml version="1.0" standalone="no"?>
<!DOCTYPE svg PUBLIC "-//W3C//DTD SVG 1.1//EN" "http://www.w3.org/Graphics/SVG/1.1/DTD/svg11.dtd">
<svg xmlns="http://www.w3.org/2000/svg">
<defs >
<font id="OxygenMono" horiz-adv-x="1237" ><font-face
    font-family="Oxygen Mono"
    units-per-em="2048"
    panose-1="2 0 5 9 3 0 0 9 0 4"
    ascent="2015"
    descent="-672"
    alphabetic="0" />
<glyph unicode=" " glyph-name="space" horiz-adv-x="1229" />
<glyph unicode="!" glyph-name="exclam" horiz-adv-x="1229" d="M735 0H495V276H735V0ZM584 489L495 1492H735L646 489H584Z" />
<glyph unicode="&quot;" glyph-name="quotedbl" horiz-adv-x="1229" d="M885 1568L834 1036H693L654 1568H885ZM518 1568L467 1036H324L285 1568H518Z" />
<glyph unicode="#" glyph-name="numbersign" horiz-adv-x="1229" d="M592 997L509 573H727L811 997H592ZM1155 997H971L886 573H1073L1058 437H863L772 -25H610L698 437H483L393 -25H230L324 437H108L121 573H350L430 996H205L219 1130H455L541 1568H704L619 1130H837L921
1568H1083L997 1130H1172L1155 997Z" />
<glyph unicode="$" glyph-name="dollar" horiz-adv-x="1229" d="M573 1752H666V1515Q874 1503 997 1406L927 1262Q818 1347 666 1361V850Q818 787 884 737T982 645Q1054 550 1054 415Q1054 220 951 109T666 -21V-218H573V-25Q314 -21 141 94L212 261Q363 138 573
130V687Q445 739 398 762Q279 821 215 904T150 1115T206 1332Q316 1506 573 1516V1752ZM573 886V1361Q472 1350 415 1287T357 1127T420 976T573 886ZM666 646V138Q752 159 797 229T843 395T796 548T666 646Z" />
<glyph unicode="%" glyph-name="percent" horiz-adv-x="1229" d="M446 1390T415 1423T336 1457Q249 1457 221 1391T193 1229T219 1069T329 1004Q465 1004 465 1232Q465 1298 456 1344ZM1125 1018L201 465L140 567L1064 1124L1125 1018ZM332 1571Q589 1571 589
1230Q589 1073 520 982T321 890T129 982T66 1228T131 1477T332 1571ZM906 662Q1163 662 1163 322Q1163 164 1094 73T895 -19T703 73T640 319T705 568T906 662ZM1020 481T989 514T910 548Q823 548 795 482T767 320T793 160T903 95Q1039 95 1039 323Q1039 389 1030
435Z" />
<glyph unicode="&amp;" glyph-name="ampersand" horiz-adv-x="1229" d="M494 961Q689 1070 689 1246Q689 1341 644 1392T526 1444T401 1400T349 1289Q349 1158 494 961ZM554 143Q632 143 690 173T804 259L449 746Q277 616 277 419Q277 288 350 216T554 143ZM1198
569Q1092 317 1015 236L1138 76L1008 -24L905 121Q837 56 738 16T531 -25Q317 -25 193 89T68 413Q68 696 346 881Q225 1017 173 1166Q152 1226 152 1275Q152 1428 255 1511T518 1594T784 1510T891 1268T796 1009T574 838L913 374Q978 450 1039 627L1198 569Z" />
<glyph unicode="&apos;" glyph-name="quotesingle" horiz-adv-x="1229" d="M558 969L496 1580H755L700 969H558Z" />
<glyph unicode="(" glyph-name="parenleft" horiz-adv-x="1229" d="M688 -152Q383 255 383 771T685 1705H861Q577 1257 577 781Q577 514 651 290T863 -152H688Z" />
<glyph unicode=")" glyph-name="parenright" horiz-adv-x="1229" d="M513 1705Q815 1288 815 772T510 -152H334Q471 66 545 290T620 781Q620 1257 336 1705H513Z" />
<glyph unicode="*" glyph-name="asterisk" horiz-adv-x="1229" d="M1046 374L866 270L612 673L363 270L181 374L499 752L56 899L148 1079L550 866L515 1330H711L681 866L1080 1079L1173 899L728 752L1046 374Z" />
<glyph unicode="+" glyph-name="plus" horiz-adv-x="1229" d="M652 1286H814V827H1311V676H813V217H648V676H152V827H652V1286Z" />
<glyph unicode="," glyph-name="comma" horiz-adv-x="1229" d="M440 -321L491 286H748L562 -321H440Z" />
<glyph unicode="-" glyph-name="hyphen" horiz-adv-x="1229" d="M993 827V672H323V827H993Z" />
<glyph unicode="." glyph-name="period" horiz-adv-x="1229" d="M764 0H463V301H764V0Z" />
<glyph unicode="/" glyph-name="slash" horiz-adv-x="1229" d="M887 1585H1084L375 -224H184L887 1585Z" />
<glyph unicode="0" glyph-name="zero" horiz-adv-x="1229" d="M841 1170L487 176Q542 130 625 130T777 213Q909 374 909 746Q909 1004 841 1170ZM737 -25T614 -25T395 37T240 208Q123 425 123 747Q123 1145 280 1354Q335 1428 420 1472T614 1516T808 1472Q964
1392 1034 1194T1105 747Q1105 425 988 208Q929 100 833 38ZM749 1310Q690 1363 605 1363T451 1280Q319 1117 319 746Q319 479 391 313L749 1310Z" />
<glyph unicode="1" glyph-name="one" horiz-adv-x="1229" d="M237 1287Q374 1343 573 1492H761V146H1075V0H238V146H574V1290Q546 1274 434 1207T237 1106V1287Z" />
<glyph unicode="2" glyph-name="two" horiz-adv-x="1229" d="M186 1395Q265 1457 350 1486T556 1516Q772 1516 890 1399T1009 1088Q1009 947 945 831T832 655T746 552L402 146H1043V0H196V191L634 723Q760 877 790 982Q805 1032 805 1083Q805 1207 742 1274T568
1341T393 1316T255 1239L186 1395Z" />
<glyph unicode="3" glyph-name="three" horiz-adv-x="1229" d="M283 228T379 193T600 157T809 228T895 432Q895 640 638 691Q567 705 483 705H373V883L483 885Q749 888 816 1008Q844 1057 844 1128Q844 1234 774 1291T573 1349Q376 1349 232 1221L163 1382Q321
1516 597 1516Q803 1516 934 1415T1065 1154T970 915T739 803Q890 776 1005 681T1120 413Q1120 158 893 51Q759 -12 567 -12Q328 -12 161 113L231 273Q283 228 379 193Z" />
<glyph unicode="4" glyph-name="four" horiz-adv-x="1229" d="M710 1282L250 538H710V1282ZM897 0H710V398H61V541L667 1492H897V538H1139V398H897V0Z" />
<glyph unicode="5" glyph-name="five" horiz-adv-x="1229" d="M909 624T843 716T660 809T474 699H264V1492H987V1346H452V880Q510 938 604 966Q640 976 674 976Q779 976 864 936T1002 826Q1110 685 1110 509T1030 197T804 6Q725 -23 604 -23Q362 -23 168 121L242
275Q422 130 615 130Q708 130 776 184Q909 290 909 494Q909 624 843 716Z" />
<glyph unicode="6" glyph-name="six" horiz-adv-x="1229" d="M352 304T430 217T637 129T843 219T922 444T849 672T642 765T430 672T352 441ZM474 852Q568 911 690 911Q883 911 998 781T1114 449Q1114 340 1075 249T969 98Q831 -26 621 -26T283 107T154 490T318
938L772 1492H1014L474 852Z" />
<glyph unicode="7" glyph-name="seven" horiz-adv-x="1229" d="M143 1323V1492H1028V1347L604 0H372L790 1323H143Z" />
<glyph unicode="8" glyph-name="eight" horiz-adv-x="1229" d="M626 874Q849 935 849 1140Q849 1247 787 1305T627 1363T467 1305T404 1139Q404 935 626 874ZM1070 406Q1070 202 952 89T626 -24T300 89T181 406Q181 504 226 582Q307 722 491 778Q211 876 211 1142Q211
1316 328 1416T626 1516T924 1416T1042 1142Q1042 876 762 778Q891 739 980 647T1070 406ZM396 378Q396 261 455 196T626 130T797 195T857 378Q857 609 626 678Q396 608 396 378Z" />
<glyph unicode="9" glyph-name="nine" horiz-adv-x="1229" d="M798 750T875 837T953 1060T875 1279T669 1363T462 1277T383 1056T456 836T663 750ZM831 669Q737 610 615 610Q421 610 307 731T193 1052Q193 1196 260 1304T434 1464T665 1517Q895 1517 1024 1388T1153
1026T989 583L539 0H297L831 669Z" />
<glyph unicode=":" glyph-name="colon" horiz-adv-x="1229" d="M788 144H487V445H788V144ZM788 830H487V1130H788V830Z" />
<glyph unicode=";" glyph-name="semicolon" horiz-adv-x="1229" d="M778 838H479V1139H778V838ZM410 -313L486 286H758L590 -313H410Z" />
<glyph unicode="&lt;" glyph-name="less" horiz-adv-x="1229" d="M1174 367V190L152 689V807L1178 1321V1142L395 749L1174 367Z" />
<glyph unicode="=" glyph-name="equal" horiz-adv-x="1229" d="M1195 457H35V605H1195V457ZM1194 898H34V1048H1194V898Z" />
<glyph unicode="&gt;" glyph-name="greater" horiz-adv-x="1229" d="M158 1155V1321L1178 794V699L152 213V380L933 753L158 1155Z" />
<glyph unicode="?" glyph-name="question" horiz-adv-x="1229" d="M328 -12V216H570V-12H328ZM426 1606Q836 1606 932 1376Q959 1312 959 1241T935 1111T873 1007T788 916T695 830T610 746Q523 652 523 556Q523 499 542 400H360Q349 486 349 569L348 570Q348 693
428 782Q480 841 558 904T676 1006Q773 1105 773 1222Q773 1393 570 1438Q513 1451 447 1451Q305 1451 168 1377V1535Q318 1606 426 1606Z" />
<glyph unicode="@" glyph-name="at" horiz-adv-x="1229" d="M790 938Q761 1029 679 1029Q576 1029 522 841Q493 741 493 620Q493 394 628 394Q721 394 781 555Q813 641 813 751T790 938ZM669 1130Q780 1130 842 970L863 1097H978Q977 1097 949 902T921 523Q921
476 942 431T999 386Q1048 386 1083 492Q1143 674 1143 864T1096 1175T952 1367T723 1440T488 1376T320 1199Q193 974 193 641Q193 256 419 87Q534 1 692 1Q918 1 1115 173L1163 117Q951 -88 681 -88Q557 -88 454 -44Q270 35 169 242Q80 424 80 627T129 994T262
1272T461 1451T696 1516T904 1484T1054 1396T1157 1263T1218 1098T1237 910T1224 712T1184 517T1107 363T985 304T873 359T822 504Q789 394 727 345T602 296Q478 296 428 401T377 638T413 878T517 1059T669 1130Z" />
<glyph unicode="A" glyph-name="A" horiz-adv-x="1229" d="M443 631H785L617 1278L443 631ZM720 1491L1161 0H964L823 481H404L264 0H68L508 1491H720Z" />
<glyph unicode="B" glyph-name="B" horiz-adv-x="1229" d="M491 876Q687 876 763 933T839 1090Q839 1238 758 1288Q701 1325 615 1335T396 1345H344V876H491ZM536 715H344V146H505Q714 146 814 208T915 435T816 658T536 715ZM1112 433Q1112 0 516 0H157V1491H450Q786
1491 910 1396T1035 1125Q1035 997 963 920T768 810Q916 788 1014 685T1112 433Z" />
<glyph unicode="C" glyph-name="C" horiz-adv-x="1229" d="M1128 1391L1062 1260Q929 1363 774 1363T518 1276Q320 1107 320 748Q320 575 371 436T522 214T757 130Q932 130 1064 238L1129 97Q989 -25 734 -25Q551 -25 412 75T198 351T124 724T171 1066T299 1309T493
1461T734 1516Q983 1516 1128 1391Z" />
<glyph unicode="D" glyph-name="D" horiz-adv-x="1229" d="M372 146Q733 146 852 372Q926 512 926 747Q926 1039 808 1192T374 1345H343V146H372ZM156 1491H401Q757 1491 939 1298T1122 744T936 191T379 0H156V1491Z" />
<glyph unicode="E" glyph-name="E" horiz-adv-x="1229" d="M404 684V146H1108L1093 0H217V1491H1075L1059 1345H404V843H1026V684H404Z" />
<glyph unicode="F" glyph-name="F" horiz-adv-x="1229" d="M431 683V0H244V1491H1078L1060 1345H431V846H1034V683H431Z" />
<glyph unicode="G" glyph-name="G" horiz-adv-x="1229" d="M1049 1255Q930 1363 734 1363Q631 1363 547 1311T411 1172Q303 991 303 743T400 317Q447 230 525 180T693 130T844 152T975 217V625H644V778H1148V132Q1031 57 926 16T683 -25T432 36T249 205Q107 422
107 750Q107 920 153 1064T282 1306T477 1460T720 1515Q968 1515 1116 1388L1049 1255Z" />
<glyph unicode="H" glyph-name="H" horiz-adv-x="1229" d="M327 0H140V1491H327V855H902V1491H1089V0H902V702H327V0Z" />
<glyph unicode="I" glyph-name="I" horiz-adv-x="1229" d="M194 1345V1491H1035V1345H704V146H1035V0H194V146H517V1345H194Z" />
<glyph unicode="J" glyph-name="J" horiz-adv-x="1229" d="M169 151Q394 126 448 126T542 132Q737 164 737 391V1345H309V1491H924V443Q924 208 822 96T455 -16Q362 -16 170 0L169 151Z" />
<glyph unicode="K" glyph-name="K" horiz-adv-x="1229" d="M927 1491H1160L661 823L1193 0H955L517 700L398 561V0H211V1491H398V773L927 1491Z" />
<glyph unicode="L" glyph-name="L" horiz-adv-x="1229" d="M490 146H1066L1056 0H303V1491H490V146Z" />
<glyph unicode="M" glyph-name="M" horiz-adv-x="1229" d="M335 1230V0H149V1491H404L617 802L830 1491H1079V0H898V1230L721 646H512L335 1230Z" />
<glyph unicode="N" glyph-name="N" horiz-adv-x="1229" d="M1078 0H858L320 1206V0H150V1491H365L911 289V1491H1078V0Z" />
<glyph unicode="O" glyph-name="O" horiz-adv-x="1229" d="M709 1363T614 1363T451 1280T351 1059T319 746T351 433T451 213T614 130T777 213T877 433T909 746T877 1059T777 1279ZM737 -25T614 -25T395 37T240 208Q123 425 123 747Q123 1145 280 1354Q335 1428
420 1472T614 1516T808 1472Q964 1392 1034 1194T1105 747Q1105 425 988 208Q929 100 833 38Z" />
<glyph unicode="P" glyph-name="P" horiz-adv-x="1229" d="M363 765H622Q764 765 849 839T935 1057T850 1273T622 1345H363V765ZM1088 1265Q1131 1180 1131 1068Q1131 764 913 673Q777 616 572 616H363V0H176V1491H573Q974 1491 1088 1265Z" />
<glyph unicode="Q" glyph-name="Q" horiz-adv-x="1229" d="M670 1363T575 1363T412 1280T312 1059T280 746T312 433T412 213T575 130T738 213T838 433T870 746T838 1059T738 1279ZM575 -25Q452 -25 356 37T202 208Q84 425 84 747Q84 1145 241 1354Q296 1428 381
1472T575 1516T768 1472Q925 1392 995 1194T1066 747T992 300T764 20Q857 -167 1040 -330L916 -458Q703 -252 589 -25Q582 -25 575 -25Z" />
<glyph unicode="R" glyph-name="R" horiz-adv-x="1229" d="M567 824H373V1345H563Q815 1345 891 1216Q920 1166 920 1098Q920 949 829 887T567 824ZM476 1491H186V0H373V662H460L601 665Q667 574 702 515T755 428T797 353T832 287T868 214T900 148T934 73T968
0H1185Q1082 227 992 391T784 707Q934 740 1024 837T1115 1099T1025 1350T799 1464T476 1491Z" />
<glyph unicode="S" glyph-name="S" horiz-adv-x="1229" d="M212 261Q372 130 593 130Q713 130 778 203T843 394T776 571T612 671L552 695Q382 763 317 810T221 896Q150 988 150 1123Q150 1310 277 1413T604 1517Q856 1517 997 1406L927 1262Q797 1363 614 1363Q496
1363 427 1299T357 1119T484 929Q532 902 629 864T824 775T988 637T1054 415Q1054 200 930 88T589 -25Q320 -25 141 94L212 261Z" />
<glyph unicode="T" glyph-name="T" horiz-adv-x="1229" d="M1129 1491V1345H705V0H518V1345H94V1491H1129Z" />
<glyph unicode="U" glyph-name="U" horiz-adv-x="1229" d="M870 -25T614 -25T244 96T129 484V1491H316V490Q316 308 377 219T614 130T851 219T912 490V1491H1099V484Q1099 217 985 96Z" />
<glyph unicode="V" glyph-name="V" horiz-adv-x="1229" d="M967 1491H1172L722 0H505L57 1491H262L617 223L967 1491Z" />
<glyph unicode="W" glyph-name="W" horiz-adv-x="1229" d="M905 210L971 1491H1156L1039 0H810L626 659L430 0H204L66 1491H251L355 213L542 880H715L905 210Z" />
<glyph unicode="X" glyph-name="X" horiz-adv-x="1229" d="M112 1491H340L629 892L941 1491H1149L749 763L1157 0H933L613 627L286 0H72L496 762L112 1491Z" />
<glyph unicode="Y" glyph-name="Y" horiz-adv-x="1229" d="M702 0H515V593L69 1491H275L610 774L949 1491H1160L702 593V0Z" />
<glyph unicode="Z" glyph-name="Z" horiz-adv-x="1229" d="M397 146H1049V0H156V143L803 1345H191V1491H1058V1364L397 146Z" />
<glyph unicode="[" glyph-name="bracketleft" horiz-adv-x="1229" d="M395 -131V1725Q396 1729 400 1730H914Q918 1729 919 1725V1593Q918 1589 914 1588H584V6H915Q919 5 920 1V-131Q919 -135 915 -136H400Q396 -135 395 -131Z" />
<glyph unicode="\" glyph-name="backslash" horiz-adv-x="1229" d="M1082 -48H902L193 1761H377L1082 -48Z" />
<glyph unicode="]" glyph-name="bracketright" horiz-adv-x="1229" d="M775 -131Q774 -135 770 -136H255Q251 -135 250 -131V1Q251 5 255 6H586V1588H256Q252 1589 251 1593V1725Q252 1729 256 1730H770Q774 1729 775 1725V-131Z" />
<glyph unicode="^" glyph-name="asciicircum" horiz-adv-x="1229" d="M644 1554H757L1296 597H1125L698 1368L284 597H111L644 1554Z" />
<glyph unicode="_" glyph-name="underscore" horiz-adv-x="1229" d="M4 -296V-157H1076V-296H4Z" />
<glyph unicode="`" glyph-name="grave" horiz-adv-x="1229" d="M654 1705L937 1268H798L418 1705H654Z" />
<glyph unicode="a" glyph-name="a" horiz-adv-x="1229" d="M849 245V525L700 504Q544 482 484 460Q350 409 350 289Q350 206 398 157T530 108Q715 108 849 245ZM849 756Q849 991 650 991Q556 991 443 969T283 927L240 1061Q447 1130 629 1130T921 1047T1031 791V0H880L856
127Q792 62 692 19T495 -25Q356 -25 264 58T172 294T292 518Q373 568 464 586T703 623L849 640V756Z" />
<glyph unicode="b" glyph-name="b" horiz-adv-x="1229" d="M360 418Q378 278 444 197Q511 116 648 116Q833 116 898 308Q931 409 931 518T924 687Q909 827 846 908T648 990Q424 990 374 774Q353 684 353 582T360 418ZM353 946Q464 1130 685 1130T1010 970T1114
568Q1114 251 964 91Q856 -25 670 -25Q547 -25 483 20T353 150L351 0H171V1545L353 1565V946Z" />
<glyph unicode="c" glyph-name="c" horiz-adv-x="1229" d="M1002 72Q897 -25 703 -25Q579 -25 477 22T310 150Q173 318 173 555Q173 708 235 838T420 1049T721 1130T999 1035L953 913Q838 990 693 990T453 866T357 551T452 237T696 115T958 195L1002 72Z" />
<glyph unicode="d" glyph-name="d" horiz-adv-x="1229" d="M878 555Q878 811 802 900T586 990Q392 990 335 798Q304 693 304 545Q304 115 586 115Q878 115 878 555ZM878 946V1545L1060 1565V0H878V170Q767 -25 564 -25Q332 -25 227 141T121 558Q121 860 275 1018Q383
1130 565 1130Q689 1130 766 1079T878 946Z" />
<glyph unicode="e" glyph-name="e" horiz-adv-x="1229" d="M294 128T239 257T183 550T234 842T388 1051T614 1131Q846 1131 954 972T1062 581V520H367Q373 351 451 233T687 115Q792 125 980 229L1040 105Q910 -25 685 -25Q524 -25 409 51ZM888 653Q868 990 652
990Q408 990 373 653H888Z" />
<glyph unicode="f" glyph-name="f" horiz-adv-x="1229" d="M675 0H493V957H206V1097H493Q493 1299 509 1352Q541 1457 591 1501Q688 1585 944 1585H1050L1040 1445H940Q863 1445 818 1438T738 1408Q675 1368 675 1230V1097H1050V957H675V0Z" />
<glyph unicode="g" glyph-name="g" horiz-adv-x="1229" d="M888 210Q854 124 768 62T576 0Q368 0 247 161T126 556Q126 868 282 1022Q393 1130 585 1130T888 948L894 1097H1079Q1070 852 1070 446V152Q1070 -202 916 -330Q806 -423 582 -448Q472 -461 322 -461L307
-321Q525 -321 619 -295T757 -237T831 -154Q888 -59 888 137V210ZM770 943T718 966T598 990T477 966Q382 923 346 815T309 599T318 436Q336 319 402 241T589 162Q781 162 850 334Q888 428 888 528T881 689T853 806T802 903Z" />
<glyph unicode="h" glyph-name="h" horiz-adv-x="1229" d="M1044 662V0H862V639Q862 845 807 917Q752 990 641 990Q529 990 447 913T364 746V0H182V1545L364 1565V964Q492 1130 707 1130Q1044 1130 1044 662Z" />
<glyph unicode="i" glyph-name="i" horiz-adv-x="1229" d="M538 1386V1485Q538 1521 578 1548T659 1576T739 1549T780 1485V1386Q780 1350 740 1323T659 1295T579 1322T538 1386ZM255 957V1097H750V140H1064V0H220V140H568V957H255Z" />
<glyph unicode="j" glyph-name="j" horiz-adv-x="1229" d="M434 -220Q531 -220 563 -203T610 -168Q645 -119 645 71V957H254V1097H827V127Q827 -129 787 -212T677 -322Q579 -360 435 -360H172V-220H434ZM613 1386V1485Q613 1521 653 1548T734 1576T814 1549T855
1485V1386Q855 1350 815 1323T734 1295T654 1322T613 1386Z" />
<glyph unicode="k" glyph-name="k" horiz-adv-x="1229" d="M392 652L878 1097H1108L619 642L1175 0H947L490 558L392 472V0H210V1545L392 1565V652Z" />
<glyph unicode="l" glyph-name="l" horiz-adv-x="1229" d="M1039 0H894Q701 0 618 40Q570 63 542 93Q468 170 465 433V1425H137V1565H647V442Q647 243 683 198T775 147T887 140H1048L1039 0Z" />
<glyph unicode="m" glyph-name="m" horiz-adv-x="1229" d="M668 960Q734 1130 899 1130Q1108 1130 1135 829Q1140 773 1140 703V0H973V682Q973 879 947 926T900 982T852 990Q764 990 727 892Q703 829 703 680V0H550V669Q550 890 498 956Q471 990 421 990T334 946Q267
864 267 721V0H100V1097H245L256 952Q285 1027 336 1078T463 1130T593 1085T668 960Z" />
<glyph unicode="n" glyph-name="n" horiz-adv-x="1229" d="M713 1130Q1054 1130 1054 698V0H872V676Q872 792 860 842T824 924Q773 990 657 990Q540 990 459 922T378 742V0H196V1097H363L373 978Q482 1130 713 1130Z" />
<glyph unicode="o" glyph-name="o" horiz-adv-x="1229" d="M612 115Q803 115 872 305Q909 407 909 514T901 682Q883 818 815 904T612 990Q426 990 358 796Q322 692 322 578Q322 376 385 246T612 115ZM1091 810T1091 552T962 135T612 -25Q494 -25 402 20T253 144Q138
303 138 558T265 971T622 1130T972 970Z" />
<glyph unicode="p" glyph-name="p" horiz-adv-x="1229" d="M339 555Q339 115 647 115Q924 115 924 555Q924 799 850 894T644 990Q388 990 348 694Q339 632 339 555ZM654 -25Q548 -25 466 24T341 150V-421L159 -441V1097H341V946Q389 1028 469 1079T650 1130Q921
1130 1035 906Q1107 764 1107 568Q1107 255 956 92Q848 -25 654 -25Z" />
<glyph unicode="q" glyph-name="q" horiz-adv-x="1229" d="M907 555Q907 990 586 990Q289 990 289 555Q289 228 467 140Q519 115 596 115T737 150T837 248Q907 369 907 555ZM907 946V1097H1089V-421L909 -441L907 150Q843 66 763 21T565 -25T359 22T215 152Q106
320 106 564T222 969T565 1130Q689 1130 769 1083T907 946Z" />
<glyph unicode="r" glyph-name="r" horiz-adv-x="1229" d="M543 0H361V1097H510L525 894Q592 1010 701 1070T948 1130H1036V961H922Q747 961 645 874T543 610V0Z" />
<glyph unicode="s" glyph-name="s" horiz-adv-x="1229" d="M890 588T955 512T1021 293T912 62T637 -25Q519 -25 408 4T244 74L289 205Q331 179 422 153T619 126T789 170T853 289T822 405T700 470L514 515Q353 555 300 631T247 822T339 1032T609 1130H622Q821 1130
961 1055L921 927Q775 989 625 989Q532 988 473 943T413 828T443 725T557 670L748 623Q890 588 955 512Z" />
<glyph unicode="t" glyph-name="t" horiz-adv-x="1229" d="M583 957V442Q583 346 593 290T635 199T717 152T853 140H1054L1044 0H860Q577 0 483 104Q422 172 408 323Q401 390 401 488V957H91L111 1097H401V1475L583 1529V1097H1045V957H583Z" />
<glyph unicode="u" glyph-name="u" horiz-adv-x="1229" d="M1039 356Q1039 -25 615 -25T191 356V1097H373V340Q373 223 431 169T615 115T799 169T857 340V1097H1039V356Z" />
<glyph unicode="v" glyph-name="v" horiz-adv-x="1229" d="M618 189Q705 426 939 1097H1141L714 0H511L87 1097H297L618 189Z" />
<glyph unicode="w" glyph-name="w" horiz-adv-x="1229" d="M424 0H238L24 1097H207L338 250L521 1097H738L917 253L1032 1097H1204L1003 0H811L628 953L424 0Z" />
<glyph unicode="x" glyph-name="x" horiz-adv-x="1229" d="M158 1097H366L627 675L888 1097H1077L740 565L1089 0H887L619 437L340 0H140L500 560L158 1097Z" />
<glyph unicode="y" glyph-name="y" horiz-adv-x="1229" d="M644 208L934 1097H1133Q829 239 774 98T699 -95T654 -200T595 -298T531 -364T435 -404T191 -423L170 -270Q303 -270 329 -264T380 -251T416 -233T446 -205Q492 -160 549 24Q267 672 142 988L99 1097H296L644
208Z" />
<glyph unicode="z" glyph-name="z" horiz-adv-x="1229" d="M223 1097H955V959L402 140L992 138V0H203V142L746 957H223V1097Z" />
<glyph unicode="{" glyph-name="braceleft" horiz-adv-x="1229" d="M514 455Q514 572 434 636T225 709V844Q354 852 434 916T514 1097V1330Q514 1527 595 1616T870 1706H873L1101 1705V1569H873Q807 1569 772 1526T736 1330V1089Q736 926 640 854Q588 814 490
776Q648 714 692 645T736 464V223Q736 72 770 28T873 -17H1101V-152L873 -153H870Q677 -153 596 -64T514 223V455Z" />
<glyph unicode="|" glyph-name="bar" horiz-adv-x="1229" d="M530 -441V1585H691V-441H530Z" />
<glyph unicode="}" glyph-name="braceright" horiz-adv-x="1229" d="M790 1097Q790 980 870 916T1079 844V709Q951 701 871 637T790 455V223Q790 26 709 -63T434 -153H431L202 -152V-17H431Q536 -17 558 83Q568 132 568 223V464Q568 608 630 668T813 776Q654 839
611 909T568 1089V1330Q568 1457 554 1487T524 1536Q497 1569 431 1569H202V1705L431 1706H434Q627 1706 708 1617T790 1330V1097Z" />
<glyph unicode="~" glyph-name="asciitilde" horiz-adv-x="1229" d="M1332 1108Q1324 1072 1320 1054Q1291 918 1245 864Q1176 781 1084 781T860 832Q499 974 455 974Q362 974 334 784L152 844Q196 1057 313 1123Q361 1150 413 1150T530 1134T650 1095T746 1056L800
1034Q982 959 1018 959T1072 972Q1122 1005 1142 1116Q1147 1146 1148 1150L1332 1108Z" />
<glyph unicode="&#xa0;" glyph-name="uni00A0" horiz-adv-x="1229" />
<glyph unicode="&#xa1;" glyph-name="exclamdown" horiz-adv-x="1229" d="M723 1184V959H487V1184H723ZM542 -417V753H715V-417H542Z" />
<glyph unicode="&#xa2;" glyph-name="cent" horiz-adv-x="1229" d="M752 -277H624V-20Q518 -6 432 46T289 177Q173 339 173 553T292 930Q349 1007 435 1059T624 1125V1368H752V1128Q915 1115 999 1035L953 913Q861 975 752 987V117Q864 129 958 195L1002 72Q914
-10 752 -23V-277ZM624 125V981Q504 951 431 834T357 552T428 272T624 125Z" />
<glyph unicode="&#xa3;" glyph-name="sterling" horiz-adv-x="1229" d="M960 1343Q879 1418 756 1418T569 1340T504 1028L508 903H874V756H511V605Q511 334 460 228Q437 181 401 153H1038V0H120L119 150Q183 186 224 224Q321 314 321 478V756H119V903H320Q313
962 313 1044Q313 1342 452 1476Q551 1572 744 1572Q849 1572 910 1547T1018 1473L960 1343Z" />
<glyph unicode="&#xa4;" glyph-name="currency" horiz-adv-x="1229" d="M325 1264Q448 1376 617 1376T912 1261L1149 1480L1194 1424L960 1208Q1052 1089 1052 941T961 675L1194 459L1149 403L912 622Q786 506 617 506T324 619L91 403L38 454L275 672Q182 791
182 941T275 1210L38 1429L91 1480L325 1264ZM272 1084T272 941T373 697T617 596T861 697T962 941T861 1185T617 1286T373 1185Z" />
<glyph unicode="&#xa5;" glyph-name="yen" horiz-adv-x="1229" d="M611 0V307H171L159 459H610V623H163V778H571L78 1541H305Q346 1474 482 1252T715 864L1127 1541H1334L830 778H1232V623H800V459H1236V307H803V0H611Z" />
<glyph unicode="&#xa6;" glyph-name="brokenbar" horiz-adv-x="1229" d="M539 1677H711V735H539V1677ZM539 427H711V-533H539V427Z" />
<glyph unicode="&#xa7;" glyph-name="section" horiz-adv-x="1229" d="M692 594Q806 662 834 722Q849 752 849 786T831 850T779 900T715 935T644 966T586 991Q439 914 439 806T614 625Q629 619 656 609T692 594ZM451 1060Q283 1158 283 1318T405 1550T706 1621Q806
1621 959 1576L960 1416Q829 1473 711 1473Q473 1473 473 1330Q473 1202 669 1124Q688 1117 774 1084T930 1006Q1047 927 1047 800Q1047 699 985 635T842 522Q1021 431 1021 274Q1021 192 983 128T880 26Q751 -52 580 -52T273 5L272 166Q421 97 545 97T726 124Q829
173 829 264Q829 370 657 436Q630 447 575 466T437 525T299 628T244 794T306 955T451 1060Z" />
<glyph unicode="&#xa8;" glyph-name="dieresis" horiz-adv-x="1229" d="M765 1279Q774 1383 774 1458Q872 1448 958 1448Q946 1362 946 1268Q850 1279 765 1279ZM330 1448Q416 1448 514 1458Q514 1372 525 1279Q435 1279 341 1268Q341 1355 330 1448Z" />
<glyph unicode="&#xa9;" glyph-name="copyright" horiz-adv-x="1229" d="M1234 1069Q1113 1173 942 1173T669 1069T568 795H570Q570 622 674 518T952 413T1229 499L1273 368Q1134 270 932 270Q810 270 708 314T539 432Q400 586 400 792Q400 915 445 1015T566 1180Q725
1311 930 1311T1269 1200L1234 1069ZM682 1483T510 1393T242 1150T146 813Q146 420 462 213Q646 92 876 92Q1049 92 1195 145T1440 292T1595 512T1650 780T1605 1036Q1523 1247 1322 1365T901 1483ZM1793 787Q1793 425 1527 196T904 -34Q641 -34 443 76T126 374T6
788Q6 1150 276 1380T898 1610Q1160 1610 1355 1499T1671 1201T1792 787H1793Z" />
<glyph unicode="&#xaa;" glyph-name="ordfeminine" horiz-adv-x="1229" d="M580 945Q682 945 740 1009T798 1178V1205Q765 1199 660 1192T492 1157T429 1061Q429 945 580 945ZM945 1340L941 1086Q941 963 951 853H806L799 933Q720 834 555 834Q436 834 356 892T276
1069T383 1241Q467 1283 612 1296T797 1315Q797 1411 762 1448T633 1486Q468 1486 401 1384L327 1466Q409 1604 641 1604Q784 1604 864 1539T945 1340Z" />
<glyph unicode="&#xab;" glyph-name="guillemotleft" horiz-adv-x="1229" d="M1086 992L794 588L1077 185H904L607 588L910 992H1086ZM679 992L386 588L668 185H495L197 588L502 992H679Z" />
<glyph unicode="&#xac;" glyph-name="logicalnot" horiz-adv-x="1229" d="M1146 715H152V866H1311V258H1146V715Z" />
<glyph unicode="&#xad;" glyph-name="uni00AD" horiz-adv-x="1229" />
<glyph unicode="&#xae;" glyph-name="registered" horiz-adv-x="1229" d="M715 848Q715 848 858 848Q1007 848 1058 863Q1160 893 1160 999Q1160 1162 954 1162H715V848ZM1167 296Q1150 326 1101 414T997 585T869 721H718V296H554V1294H855L854 1293Q1195 1293
1291 1156Q1331 1098 1331 1014Q1331 893 1248 824T1038 740Q1121 661 1195 549T1353 296H1167ZM257 1189T202 1062T146 793T192 534Q274 322 480 206T928 90Q1089 90 1227 147T1456 298T1598 513T1650 764T1609 1013Q1533 1231 1342 1356T922 1482Q748 1482 602
1429T356 1282ZM1793 785Q1793 423 1526 193Q1260 -37 892 -37Q641 -37 443 73T126 371T6 786Q6 1146 275 1377T898 1608Q1160 1608 1356 1497T1672 1198T1792 785H1793Z" />
<glyph unicode="&#xaf;" glyph-name="overscore" horiz-adv-x="1229" d="M275 1499V1639H954V1499H275Z" />
<glyph unicode="&#xb0;" glyph-name="degree" horiz-adv-x="1229" d="M1006 1248Q1006 1110 902 1020T649 929T400 1028T299 1257T403 1477T653 1567Q755 1567 837 1520T963 1400T1006 1248ZM563 1054T653 1054T805 1109T868 1250T805 1388T653 1442T501 1388T438
1250T500 1110Z" />
<glyph unicode="&#xb1;" glyph-name="plusminus" horiz-adv-x="1229" d="M152 150H1312V0H152V150ZM644 1201H810V795H1309V645H813V242H647V645H152V795H644V1201Z" />
<glyph unicode="&#xb2;" glyph-name="uni00B2" horiz-adv-x="1229" d="M355 1458T430 1511T623 1564T829 1502T916 1309T795 1045Q716 959 665 915T602 859T555 819T514 784H915V656H312V776Q337 799 387 843Q774 1184 774 1315H775Q775 1375 732 1405T621 1436Q482
1436 414 1294L319 1378Q355 1458 430 1511Z" />
<glyph unicode="&#xb3;" glyph-name="uni00B3" horiz-adv-x="1229" d="M379 846Q472 761 580 761V760Q663 760 718 797T773 907Q773 1053 535 1053L473 1051V1181Q590 1181 641 1193Q746 1217 746 1312Q746 1434 590 1434Q486 1434 377 1350L313 1454Q432 1564
577 1564T808 1496T893 1306T774 1120Q916 1058 916 905Q916 780 820 708T573 636T313 741L379 846Z" />
<glyph unicode="&#xb4;" glyph-name="acute" horiz-adv-x="1229" d="M418 1268L679 1705H911L560 1268H418Z" />
<glyph unicode="&#xb5;" glyph-name="uni00B5" horiz-adv-x="1229" d="M378 49V-295H196V1097H378V421Q378 305 390 255T426 173Q477 107 593 107Q710 107 791 175T872 355V1097H1054V0H887L877 119Q768 -22 537 -22Q445 -22 378 49Z" />
<glyph unicode="&#xb6;" glyph-name="paragraph" horiz-adv-x="1229" d="M66 1227Q66 1523 466 1566Q544 1575 637 1575H1065V1441H969V-160H825V1441H595V-160H438V853Q275 855 171 960T66 1227Z" />
<glyph unicode="&#xb7;" glyph-name="middot" horiz-adv-x="1229" d="M487 557V785H728V557H487Z" />
<glyph unicode="&#xb8;" glyph-name="cedilla" horiz-adv-x="1229" d="M731 -339T731 -261T609 -183Q602 -183 534 -188L569 19H677L657 -98L666 -97Q765 -97 826 -136T888 -260Q888 -428 617 -428Q541 -428 428 -405L437 -313Q548 -339 604 -339Q731 -339 731 -261Z" />
<glyph unicode="&#xb9;" glyph-name="uni00B9" horiz-adv-x="1229" d="M564 1381Q484 1340 396 1306L397 1447Q492 1479 582 1533L698 1549V781H833V656H430V785H564V1381Z" />
<glyph unicode="&#xba;" glyph-name="ordmasculine" horiz-adv-x="1229" d="M437 1096T501 1023T681 950T861 1023T927 1218T864 1412T683 1486T501 1413T437 1218ZM1080 1042T972 938T681 833T390 936T281 1217T391 1498T684 1602T973 1500T1080 1220Z" />
<glyph unicode="&#xbb;" glyph-name="guillemotright" horiz-adv-x="1229" d="M636 185L926 589L645 992H817L1116 589L809 185H636ZM197 185L489 589L203 992H380L678 589L373 185H197Z" />
<glyph unicode="&#xbc;" glyph-name="onequarter" horiz-adv-x="1229" d="M1353 361Q1353 361 1352 570Q1352 621 1354 725L1091 361H1353ZM191 1381Q100 1333 23 1306L24 1447Q116 1477 209 1533L326 1549V781H461V656H57V785H191V1381ZM409 1H242L1244 1560H1408L409
1ZM1354 245H936V345L1340 906H1490V361H1610L1621 245H1487V1L1354 41V245Z" />
<glyph unicode="&#xbd;" glyph-name="onehalf" horiz-adv-x="1229" d="M171 1381Q95 1342 2 1306L3 1447Q103 1481 188 1533L304 1549V781H440V656H36V785H171V1381ZM323 1H157L1160 1560H1323L323 1ZM960 776T1034 828T1227 881T1434 820T1521 627T1398 360Q1308
260 1219 186T1117 101H1520V-26H914V94Q942 119 1030 197T1205 362T1334 522T1378 632H1380Q1380 693 1336 723T1224 754Q1088 754 1017 612L924 697Q960 776 1034 828Z" />
<glyph unicode="&#xbe;" glyph-name="threequarters" horiz-adv-x="1229" d="M1381 363V509Q1381 654 1383 726L1119 363H1381ZM86 846Q181 761 287 761V760Q370 760 425 797T480 907Q480 1053 243 1053L181 1051V1181Q299 1181 350 1193Q453 1218 453 1312Q453
1434 298 1434Q194 1434 85 1350L20 1454Q137 1564 283 1564T515 1496T600 1305T481 1120Q624 1059 624 905Q624 780 528 708T281 636T20 741L86 846ZM457 -1H290L1293 1558H1457L457 -1ZM1383 248H965V346L1368 909H1518V363H1639L1650 248H1516V-1L1383 44V248Z"
/>
<glyph unicode="&#xbf;" glyph-name="questiondown" horiz-adv-x="1229" d="M799 1604V1376H557V1604H799ZM692 -13Q317 -13 208 186Q168 261 168 347T200 500T281 617T386 720T491 818Q604 924 604 1037Q604 1099 586 1193H767Q778 1103 778 1024L779 1023Q779
902 699 811Q645 750 568 688T452 588Q355 490 355 371Q355 197 556 154Q613 142 680 142Q822 142 959 216V58Q811 -13 692 -13Z" />
<glyph unicode="&#xc0;" glyph-name="Agrave" horiz-adv-x="1229" d="M443 631H785L617 1278L443 631ZM720 1491L1161 0H964L823 481H404L264 0H68L508 1491H720ZM400 2075L683 1638H544L164 2075H400Z" />
<glyph unicode="&#xc1;" glyph-name="Aacute" horiz-adv-x="1229" d="M443 631H785L617 1278L443 631ZM720 1491L1161 0H964L823 481H404L264 0H68L508 1491H720ZM543 1638L804 2075H1036L685 1638H543Z" />
<glyph unicode="&#xc2;" glyph-name="Acircumflex" horiz-adv-x="1229" d="M443 631H785L617 1278L443 631ZM720 1491L1161 0H964L823 481H404L264 0H68L508 1491H720ZM697 1987L956 1638H813L609 1873L407 1638H271L530 1987H697Z" />
<glyph unicode="&#xc3;" glyph-name="Atilde" horiz-adv-x="1229" d="M443 631H785L617 1278L443 631ZM720 1491L1161 0H964L823 481H404L264 0H68L508 1491H720ZM359 1652H222Q224 1766 284 1831T443 1897T622 1839T786 1780Q859 1780 867 1885H1005Q999 1774
943 1706T790 1638T616 1696T451 1754T359 1652Z" />
<glyph unicode="&#xc4;" glyph-name="Adieresis" horiz-adv-x="1229" d="M443 631H785L617 1278L443 631ZM720 1491L1161 0H964L823 481H404L264 0H68L508 1491H720ZM735 1649Q744 1753 744 1828Q842 1818 928 1818Q916 1732 916 1638Q820 1649 735 1649ZM300
1818Q386 1818 484 1828Q484 1742 495 1649Q405 1649 311 1638Q311 1725 300 1818Z" />
<glyph unicode="&#xc5;" glyph-name="Aring" horiz-adv-x="1229" d="M443 631H785L617 1278L443 631ZM720 1491L1161 0H964L823 481H404L264 0H68L508 1491H720ZM711 1916T778 1859T846 1711T778 1561T614 1502T450 1560T381 1710T449 1859T614 1916ZM737 1756T704
1789T619 1823T529 1793T491 1713T521 1629T604 1595T697 1625T737 1706Z" />
<glyph unicode="&#xc6;" glyph-name="AE" horiz-adv-x="1229" d="M692 591V1360L441 591H692ZM612 1572H1165L1153 1411H871V881H1179L1166 721H871V151H1194L1182 0H692V431H380L235 0H27L612 1572Z" />
<glyph unicode="&#xc7;" glyph-name="Ccedilla" horiz-adv-x="1229" d="M1128 1391L1062 1260Q929 1363 774 1363T518 1276Q320 1107 320 748Q320 575 371 436T522 214T757 130Q932 130 1064 238L1129 97Q989 -25 734 -25Q551 -25 412 75T198 351T124 724T171
1066T299 1309T493 1461T734 1516Q983 1516 1128 1391ZM847 -112T847 -34T725 44Q718 44 650 39L685 246H793L773 129L782 130Q881 130 942 91T1004 -33Q1004 -201 733 -201Q657 -201 544 -178L553 -86Q664 -112 720 -112Q847 -112 847 -34Z" />
<glyph unicode="&#xc8;" glyph-name="Egrave" horiz-adv-x="1229" d="M404 684V146H1108L1093 0H217V1491H1075L1059 1345H404V843H1026V684H404ZM449 2075L732 1638H593L213 2075H449Z" />
<glyph unicode="&#xc9;" glyph-name="Eacute" horiz-adv-x="1229" d="M404 684V146H1108L1093 0H217V1491H1075L1059 1345H404V843H1026V684H404ZM592 1638L853 2075H1085L734 1638H592Z" />
<glyph unicode="&#xca;" glyph-name="Ecircumflex" horiz-adv-x="1229" d="M404 684V146H1108L1093 0H217V1491H1075L1059 1345H404V843H1026V684H404ZM746 1987L1005 1638H862L658 1873L456 1638H320L579 1987H746Z" />
<glyph unicode="&#xcb;" glyph-name="Edieresis" horiz-adv-x="1229" d="M404 684V146H1108L1093 0H217V1491H1075L1059 1345H404V843H1026V684H404ZM783 1649Q792 1753 792 1828Q890 1818 976 1818Q964 1732 964 1638Q868 1649 783 1649ZM348 1818Q434 1818 532
1828Q532 1742 543 1649Q453 1649 359 1638Q359 1725 348 1818Z" />
<glyph unicode="&#xcc;" glyph-name="Igrave" horiz-adv-x="1229" d="M194 1345V1491H1035V1345H704V146H1035V0H194V146H517V1345H194ZM401 2075L684 1638H545L165 2075H401Z" />
<glyph unicode="&#xcd;" glyph-name="Iacute" horiz-adv-x="1229" d="M194 1345V1491H1035V1345H704V146H1035V0H194V146H517V1345H194ZM544 1638L805 2075H1037L686 1638H544Z" />
<glyph unicode="&#xce;" glyph-name="Icircumflex" horiz-adv-x="1229" d="M194 1345V1491H1035V1345H704V146H1035V0H194V146H517V1345H194ZM698 1987L957 1638H814L610 1873L408 1638H272L531 1987H698Z" />
<glyph unicode="&#xcf;" glyph-name="Idieresis" horiz-adv-x="1229" d="M194 1345V1491H1035V1345H704V146H1035V0H194V146H517V1345H194ZM735 1649Q744 1753 744 1828Q842 1818 928 1818Q916 1732 916 1638Q820 1649 735 1649ZM300 1818Q386 1818 484 1828Q484
1742 495 1649Q405 1649 311 1638Q311 1725 300 1818Z" />
<glyph unicode="&#xd0;" glyph-name="Eth" horiz-adv-x="1229" d="M694 160Q1015 160 1198 318T1381 782Q1381 1201 1078 1337Q894 1420 587 1420H405V863H633V714H405V160H694ZM563 1581Q1155 1581 1399 1328Q1584 1135 1584 786Q1584 593 1517 442T1327 195Q1079
0 676 0H215V714H0V863H215V1581H563Z" />
<glyph unicode="&#xd1;" glyph-name="Ntilde" horiz-adv-x="1229" d="M1078 0H858L320 1206V0H150V1491H365L911 289V1491H1078V0ZM359 1652H222Q224 1766 284 1831T443 1897T622 1839T786 1780Q859 1780 867 1885H1005Q999 1774 943 1706T790 1638T616 1696T451
1754T359 1652Z" />
<glyph unicode="&#xd2;" glyph-name="Ograve" horiz-adv-x="1229" d="M709 1363T614 1363T451 1280T351 1059T319 746T351 433T451 213T614 130T777 213T877 433T909 746T877 1059T777 1279ZM737 -25T614 -25T395 37T240 208Q123 425 123 747Q123 1145 280 1354Q335
1428 420 1472T614 1516T808 1472Q964 1392 1034 1194T1105 747Q1105 425 988 208Q929 100 833 38ZM400 2075L683 1638H544L164 2075H400Z" />
<glyph unicode="&#xd3;" glyph-name="Oacute" horiz-adv-x="1229" d="M709 1363T614 1363T451 1280T351 1059T319 746T351 433T451 213T614 130T777 213T877 433T909 746T877 1059T777 1279ZM737 -25T614 -25T395 37T240 208Q123 425 123 747Q123 1145 280 1354Q335
1428 420 1472T614 1516T808 1472Q964 1392 1034 1194T1105 747Q1105 425 988 208Q929 100 833 38ZM543 1638L804 2075H1036L685 1638H543Z" />
<glyph unicode="&#xd4;" glyph-name="Ocircumflex" horiz-adv-x="1229" d="M709 1363T614 1363T451 1280T351 1059T319 746T351 433T451 213T614 130T777 213T877 433T909 746T877 1059T777 1279ZM737 -25T614 -25T395 37T240 208Q123 425 123 747Q123 1145 280
1354Q335 1428 420 1472T614 1516T808 1472Q964 1392 1034 1194T1105 747Q1105 425 988 208Q929 100 833 38ZM697 1987L956 1638H813L609 1873L407 1638H271L530 1987H697Z" />
<glyph unicode="&#xd5;" glyph-name="Otilde" horiz-adv-x="1229" d="M709 1363T614 1363T451 1280T351 1059T319 746T351 433T451 213T614 130T777 213T877 433T909 746T877 1059T777 1279ZM737 -25T614 -25T395 37T240 208Q123 425 123 747Q123 1145 280 1354Q335
1428 420 1472T614 1516T808 1472Q964 1392 1034 1194T1105 747Q1105 425 988 208Q929 100 833 38ZM359 1652H222Q224 1766 284 1831T443 1897T622 1839T786 1780Q859 1780 867 1885H1005Q999 1774 943 1706T790 1638T616 1696T451 1754T359 1652Z" />
<glyph unicode="&#xd6;" glyph-name="Odieresis" horiz-adv-x="1229" d="M709 1363T614 1363T451 1280T351 1059T319 746T351 433T451 213T614 130T777 213T877 433T909 746T877 1059T777 1279ZM737 -25T614 -25T395 37T240 208Q123 425 123 747Q123 1145 280
1354Q335 1428 420 1472T614 1516T808 1472Q964 1392 1034 1194T1105 747Q1105 425 988 208Q929 100 833 38ZM735 1649Q744 1753 744 1828Q842 1818 928 1818Q916 1732 916 1638Q820 1649 735 1649ZM300 1818Q386 1818 484 1828Q484 1742 495 1649Q405 1649 311
1638Q311 1725 300 1818Z" />
<glyph unicode="&#xd7;" glyph-name="multiply" horiz-adv-x="1229" d="M1077 280L961 168L633 489L305 168L190 278L518 602L190 924L305 1036L633 713L961 1036L1077 923L747 602L1077 280Z" />
<glyph unicode="&#xd8;" glyph-name="Oslash" horiz-adv-x="1229" d="M770 1284Q704 1356 611 1356T450 1274Q319 1116 319 746Q319 517 374 360L770 1284ZM954 1346Q1105 1141 1105 747Q1105 425 988 208Q929 100 833 38T614 -25T393 39L281 -222L146 -171L282
145Q123 358 123 751T280 1354Q401 1516 625 1516Q744 1516 842 1453L955 1717L1095 1675L954 1346ZM463 203Q528 136 618 136T777 218Q909 376 909 746Q909 969 858 1122L463 203Z" />
<glyph unicode="&#xd9;" glyph-name="Ugrave" horiz-adv-x="1229" d="M870 -25T614 -25T244 96T129 484V1491H316V490Q316 308 377 219T614 130T851 219T912 490V1491H1099V484Q1099 217 985 96ZM400 2075L683 1638H544L164 2075H400Z" />
<glyph unicode="&#xda;" glyph-name="Uacute" horiz-adv-x="1229" d="M870 -25T614 -25T244 96T129 484V1491H316V490Q316 308 377 219T614 130T851 219T912 490V1491H1099V484Q1099 217 985 96ZM543 1638L804 2075H1036L685 1638H543Z" />
<glyph unicode="&#xdb;" glyph-name="Ucircumflex" horiz-adv-x="1229" d="M870 -25T614 -25T244 96T129 484V1491H316V490Q316 308 377 219T614 130T851 219T912 490V1491H1099V484Q1099 217 985 96ZM697 1987L956 1638H813L609 1873L407 1638H271L530 1987H697Z" />
<glyph unicode="&#xdc;" glyph-name="Udieresis" horiz-adv-x="1229" d="M870 -25T614 -25T244 96T129 484V1491H316V490Q316 308 377 219T614 130T851 219T912 490V1491H1099V484Q1099 217 985 96ZM735 1649Q744 1753 744 1828Q842 1818 928 1818Q916 1732 916
1638Q820 1649 735 1649ZM300 1818Q386 1818 484 1828Q484 1742 495 1649Q405 1649 311 1638Q311 1725 300 1818Z" />
<glyph unicode="&#xdd;" glyph-name="Yacute" horiz-adv-x="1229" d="M702 0H515V593L69 1491H275L610 774L949 1491H1160L702 593V0ZM544 1638L805 2075H1037L686 1638H544Z" />
<glyph unicode="&#xde;" glyph-name="Thorn" horiz-adv-x="1229" d="M655 643Q1075 643 1075 956Q1075 1168 880 1230Q773 1264 603 1264H366V643H655ZM1245 1153T1262 1090T1279 953T1262 817Q1227 695 1141 630Q979 508 665 489Q530 481 366 481V0H176V1581H366V1424Q695
1424 780 1411T937 1381T1053 1341T1144 1281T1219 1199Z" />
<glyph unicode="&#xdf;" glyph-name="germandbls" horiz-adv-x="1229" d="M1044 1484Q1141 1399 1141 1256Q1141 1166 1109 1117T1055 1042T998 986T940 940T878 896T823 858Q860 835 928 799T1047 736Q1176 668 1261 578T1347 363Q1347 174 1228 74T891 -26T541
76L612 225Q762 139 876 139T1051 195T1111 333T1078 460T1024 522T977 559T900 607T793 665T674 742T613 849T702 978Q728 996 779 1031T876 1119T922 1245T884 1362Q815 1442 667 1442T451 1348T382 1096V0H164V1116Q164 1349 295 1474T670 1599T1044 1484Z"
/>
<glyph unicode="&#xe0;" glyph-name="agrave" horiz-adv-x="1229" d="M849 245V525L700 504Q544 482 484 460Q350 409 350 289Q350 206 398 157T530 108Q715 108 849 245ZM849 756Q849 991 650 991Q556 991 443 969T283 927L240 1061Q447 1130 629 1130T921 1047T1031
791V0H880L856 127Q792 62 692 19T495 -25Q356 -25 264 58T172 294T292 518Q373 568 464 586T703 623L849 640V756ZM442 1689L725 1252H586L206 1689H442Z" />
<glyph unicode="&#xe1;" glyph-name="aacute" horiz-adv-x="1229" d="M849 245V525L700 504Q544 482 484 460Q350 409 350 289Q350 206 398 157T530 108Q715 108 849 245ZM849 756Q849 991 650 991Q556 991 443 969T283 927L240 1061Q447 1130 629 1130T921 1047T1031
791V0H880L856 127Q792 62 692 19T495 -25Q356 -25 264 58T172 294T292 518Q373 568 464 586T703 623L849 640V756ZM584 1252L845 1689H1077L726 1252H584Z" />
<glyph unicode="&#xe2;" glyph-name="acircumflex" horiz-adv-x="1229" d="M849 245V525L700 504Q544 482 484 460Q350 409 350 289Q350 206 398 157T530 108Q715 108 849 245ZM849 756Q849 991 650 991Q556 991 443 969T283 927L240 1061Q447 1130 629 1130T921
1047T1031 791V0H880L856 127Q792 62 692 19T495 -25Q356 -25 264 58T172 294T292 518Q373 568 464 586T703 623L849 640V756ZM739 1857L998 1508H855L651 1743L449 1508H313L572 1857H739Z" />
<glyph unicode="&#xe3;" glyph-name="atilde" horiz-adv-x="1229" d="M849 245V525L700 504Q544 482 484 460Q350 409 350 289Q350 206 398 157T530 108Q715 108 849 245ZM849 756Q849 991 650 991Q556 991 443 969T283 927L240 1061Q447 1130 629 1130T921 1047T1031
791V0H880L856 127Q792 62 692 19T495 -25Q356 -25 264 58T172 294T292 518Q373 568 464 586T703 623L849 640V756ZM401 1522H264Q266 1636 326 1701T485 1767T664 1709T828 1650Q901 1650 909 1755H1047Q1041 1644 985 1576T832 1508T658 1566T493 1624T401 1522Z"
/>
<glyph unicode="&#xe4;" glyph-name="adieresis" horiz-adv-x="1229" d="M849 245V525L700 504Q544 482 484 460Q350 409 350 289Q350 206 398 157T530 108Q715 108 849 245ZM849 756Q849 991 650 991Q556 991 443 969T283 927L240 1061Q447 1130 629 1130T921
1047T1031 791V0H880L856 127Q792 62 692 19T495 -25Q356 -25 264 58T172 294T292 518Q373 568 464 586T703 623L849 640V756ZM776 1519Q785 1623 785 1698Q883 1688 969 1688Q957 1602 957 1508Q861 1519 776 1519ZM341 1688Q427 1688 525 1698Q525 1612 536 1519Q446
1519 352 1508Q352 1595 341 1688Z" />
<glyph unicode="&#xe5;" glyph-name="aring" horiz-adv-x="1229" d="M849 245V525L700 504Q544 482 484 460Q350 409 350 289Q350 206 398 157T530 108Q715 108 849 245ZM849 756Q849 991 650 991Q556 991 443 969T283 927L240 1061Q447 1130 629 1130T921 1047T1031
791V0H880L856 127Q792 62 692 19T495 -25Q356 -25 264 58T172 294T292 518Q373 568 464 586T703 623L849 640V756ZM753 1666T820 1609T888 1461T820 1311T656 1252T492 1310T423 1460T491 1609T656 1666ZM779 1506T746 1539T661 1573T571 1543T533 1463T563 1379T646
1345T739 1375T779 1456Z" />
<glyph unicode="&#xe6;" glyph-name="ae" horiz-adv-x="1229" d="M1026 653Q1009 977 880 977Q802 977 759 885T709 653H1026ZM232 297Q232 122 352 122Q433 122 501 158T593 210Q556 311 543 452H499Q350 452 291 415T232 297ZM1148 98Q1033 -25 865 -25Q737
-25 653 94Q649 92 608 67T499 9T329 -25T141 59T55 280Q55 495 233 560Q328 594 522 594H537V786Q537 880 496 924T369 969Q233 969 145 894L101 1053Q214 1130 378 1130Q574 1130 644 988Q738 1130 880 1130Q972 1130 1039 1054Q1170 907 1170 581L1168 520H703Q709
344 753 233T878 122Q978 122 1068 222L1148 98Z" />
<glyph unicode="&#xe7;" glyph-name="ccedilla" horiz-adv-x="1229" d="M1002 72Q897 -25 703 -25Q579 -25 477 22T310 150Q173 318 173 555Q173 708 235 838T420 1049T721 1130T999 1035L953 913Q838 990 693 990T453 866T357 551T452 237T696 115T958 195L1002
72ZM788 -112T788 -34T666 44Q659 44 591 39L626 246H734L714 129L723 130Q822 130 883 91T945 -33Q945 -201 674 -201Q598 -201 485 -178L494 -86Q605 -112 661 -112Q788 -112 788 -34Z" />
<glyph unicode="&#xe8;" glyph-name="egrave" horiz-adv-x="1229" d="M294 128T239 257T183 550T234 842T388 1051T614 1131Q846 1131 954 972T1062 581V520H367Q373 351 451 233T687 115Q792 125 980 229L1040 105Q910 -25 685 -25Q524 -25 409 51ZM888 653Q868
990 652 990Q408 990 373 653H888ZM420 1689L703 1252H564L184 1689H420Z" />
<glyph unicode="&#xe9;" glyph-name="eacute" horiz-adv-x="1229" d="M294 128T239 257T183 550T234 842T388 1051T614 1131Q846 1131 954 972T1062 581V520H367Q373 351 451 233T687 115Q792 125 980 229L1040 105Q910 -25 685 -25Q524 -25 409 51ZM888 653Q868
990 652 990Q408 990 373 653H888ZM563 1252L824 1689H1056L705 1252H563Z" />
<glyph unicode="&#xea;" glyph-name="ecircumflex" horiz-adv-x="1229" d="M294 128T239 257T183 550T234 842T388 1051T614 1131Q846 1131 954 972T1062 581V520H367Q373 351 451 233T687 115Q792 125 980 229L1040 105Q910 -25 685 -25Q524 -25 409 51ZM888
653Q868 990 652 990Q408 990 373 653H888ZM717 1857L976 1508H833L629 1743L427 1508H291L550 1857H717Z" />
<glyph unicode="&#xeb;" glyph-name="edieresis" horiz-adv-x="1229" d="M294 128T239 257T183 550T234 842T388 1051T614 1131Q846 1131 954 972T1062 581V520H367Q373 351 451 233T687 115Q792 125 980 229L1040 105Q910 -25 685 -25Q524 -25 409 51ZM888 653Q868
990 652 990Q408 990 373 653H888ZM1011 1519Q1020 1623 1020 1698Q1118 1688 1204 1688Q1192 1602 1192 1508Q1096 1519 1011 1519ZM576 1688Q662 1688 760 1698Q760 1612 771 1519Q681 1519 587 1508Q587 1595 576 1688Z" />
<glyph unicode="&#xec;" glyph-name="igrave" horiz-adv-x="1229" d="M266 953V1097H788V144H1185V0H197V144H606V953H266ZM484 1689L767 1252H628L248 1689H484Z" />
<glyph unicode="&#xed;" glyph-name="iacute" horiz-adv-x="1229" d="M266 953V1097H788V144H1185V0H197V144H606V953H266ZM626 1252L887 1689H1119L768 1252H626Z" />
<glyph unicode="&#xee;" glyph-name="icircumflex" horiz-adv-x="1229" d="M266 953V1097H788V144H1185V0H197V144H606V953H266ZM781 1857L1040 1508H897L693 1743L491 1508H355L614 1857H781Z" />
<glyph unicode="&#xef;" glyph-name="idieresis" horiz-adv-x="1229" d="M266 953V1097H788V144H1185V0H197V144H606V953H266ZM818 1519Q827 1623 827 1698Q925 1688 1011 1688Q999 1602 999 1508Q903 1519 818 1519ZM383 1688Q469 1688 567 1698Q567 1612 578
1519Q488 1519 394 1508Q394 1595 383 1688Z" />
<glyph unicode="&#xf0;" glyph-name="eth" horiz-adv-x="1229" d="M673 129Q946 129 1018 404Q1040 485 1040 570T976 712Q851 822 678 822T418 730T331 481T424 227T673 129ZM760 1619Q1007 1526 1137 1264H1355V1115H1193Q1247 948 1247 780T1229 500Q1190 258
1058 117T677 -25T282 121T135 484L136 485Q136 710 274 842T641 975Q933 975 1054 786Q1054 977 1014 1115H724V1264H951Q862 1425 673 1527L760 1619Z" />
<glyph unicode="&#xf1;" glyph-name="ntilde" horiz-adv-x="1229" d="M713 1130Q1054 1130 1054 698V0H872V676Q872 792 860 842T824 924Q773 990 657 990Q540 990 459 922T378 742V0H196V1097H363L373 978Q482 1130 713 1130ZM638 1522H501Q503 1636 563 1701T722
1767T901 1709T1065 1650Q1138 1650 1146 1755H1284Q1278 1644 1222 1576T1069 1508T895 1566T730 1624T638 1522Z" />
<glyph unicode="&#xf2;" glyph-name="ograve" horiz-adv-x="1229" d="M612 115Q803 115 872 305Q909 407 909 514T901 682Q883 818 815 904T612 990Q426 990 358 796Q322 692 322 578Q322 376 385 246T612 115ZM1091 810T1091 552T962 135T612 -25Q494 -25 402
20T253 144Q138 303 138 558T265 971T622 1130T972 970ZM398 1689L681 1252H542L162 1689H398Z" />
<glyph unicode="&#xf3;" glyph-name="oacute" horiz-adv-x="1229" d="M612 115Q803 115 872 305Q909 407 909 514T901 682Q883 818 815 904T612 990Q426 990 358 796Q322 692 322 578Q322 376 385 246T612 115ZM1091 810T1091 552T962 135T612 -25Q494 -25 402
20T253 144Q138 303 138 558T265 971T622 1130T972 970ZM541 1508L802 1945H1034L683 1508H541Z" />
<glyph unicode="&#xf4;" glyph-name="ocircumflex" horiz-adv-x="1229" d="M612 115Q803 115 872 305Q909 407 909 514T901 682Q883 818 815 904T612 990Q426 990 358 796Q322 692 322 578Q322 376 385 246T612 115ZM1091 810T1091 552T962 135T612 -25Q494 -25
402 20T253 144Q138 303 138 558T265 971T622 1130T972 970ZM951 1857L1210 1508H1067L863 1743L661 1508H525L784 1857H951Z" />
<glyph unicode="&#xf5;" glyph-name="otilde" horiz-adv-x="1229" d="M612 115Q803 115 872 305Q909 407 909 514T901 682Q883 818 815 904T612 990Q426 990 358 796Q322 692 322 578Q322 376 385 246T612 115ZM1091 810T1091 552T962 135T612 -25Q494 -25 402
20T253 144Q138 303 138 558T265 971T622 1130T972 970ZM613 1522H476Q478 1636 538 1701T697 1767T876 1709T1040 1650Q1113 1650 1121 1755H1259Q1253 1644 1197 1576T1044 1508T870 1566T705 1624T613 1522Z" />
<glyph unicode="&#xf6;" glyph-name="odieresis" horiz-adv-x="1229" d="M612 115Q803 115 872 305Q909 407 909 514T901 682Q883 818 815 904T612 990Q426 990 358 796Q322 692 322 578Q322 376 385 246T612 115ZM1091 810T1091 552T962 135T612 -25Q494 -25
402 20T253 144Q138 303 138 558T265 971T622 1130T972 970ZM989 1519Q998 1623 998 1698Q1096 1688 1182 1688Q1170 1602 1170 1508Q1074 1519 989 1519ZM554 1688Q640 1688 738 1698Q738 1612 749 1519Q659 1519 565 1508Q565 1595 554 1688Z" />
<glyph unicode="&#xf7;" glyph-name="divide" horiz-adv-x="1229" d="M619 948V1175H858V948H619ZM619 22V251H858V22H619ZM152 677H1311V526H152V677Z" />
<glyph unicode="&#xf8;" glyph-name="oslash" horiz-adv-x="1229" d="M322 -283L210 -242L338 52Q231 126 175 257T118 551Q118 810 255 970T615 1130Q713 1130 796 1101L920 1386L1032 1351L900 1047Q1003 974 1056 847T1110 558Q1110 297 971 136T607 -25Q520
-25 445 0L322 -283ZM509 147Q556 129 618 129T736 153Q836 197 881 306T927 553Q927 771 829 884L509 147ZM409 213L732 955Q679 977 605 977T469 940T371 840Q301 716 301 550Q301 329 409 213Z" />
<glyph unicode="&#xf9;" glyph-name="ugrave" horiz-adv-x="1229" d="M1039 356Q1039 -25 615 -25T191 356V1097H373V340Q373 223 431 169T615 115T799 169T857 340V1097H1039V356ZM400 1689L683 1252H544L164 1689H400Z" />
<glyph unicode="&#xfa;" glyph-name="uacute" horiz-adv-x="1229" d="M1039 356Q1039 -25 615 -25T191 356V1097H373V340Q373 223 431 169T615 115T799 169T857 340V1097H1039V356ZM543 1508L804 1945H1036L685 1508H543Z" />
<glyph unicode="&#xfb;" glyph-name="ucircumflex" horiz-adv-x="1229" d="M1039 356Q1039 -25 615 -25T191 356V1097H373V340Q373 223 431 169T615 115T799 169T857 340V1097H1039V356ZM953 1857L1212 1508H1069L865 1743L663 1508H527L786 1857H953Z" />
<glyph unicode="&#xfc;" glyph-name="udieresis" horiz-adv-x="1229" d="M1039 356Q1039 -25 615 -25T191 356V1097H373V340Q373 223 431 169T615 115T799 169T857 340V1097H1039V356ZM991 1519Q1000 1623 1000 1698Q1098 1688 1184 1688Q1172 1602 1172 1508Q1076
1519 991 1519ZM556 1688Q642 1688 740 1698Q740 1612 751 1519Q661 1519 567 1508Q567 1595 556 1688Z" />
<glyph unicode="&#xfd;" glyph-name="yacute" horiz-adv-x="1229" d="M644 208L934 1097H1133Q829 239 774 98T699 -95T654 -200T595 -298T531 -364T435 -404T191 -423L170 -270Q303 -270 329 -264T380 -251T416 -233T446 -205Q492 -160 549 24Q267 672 142 988L99
1097H296L644 208ZM568 1252L829 1689H1061L710 1252H568Z" />
<glyph unicode="&#xfe;" glyph-name="thorn" horiz-adv-x="1229" d="M967 878Q886 996 699 996Q426 996 360 719Q340 638 340 536Q340 350 431 234T698 118T961 246T1048 567T967 878ZM342 957Q483 1141 727 1141T1109 986T1246 572H1245Q1245 306 1100 141T720
-25T341 146V-464H158V1580H342V957Z" />
<glyph unicode="&#xff;" glyph-name="ydieresis" horiz-adv-x="1229" d="M644 208L934 1097H1133Q829 239 774 98T699 -95T654 -200T595 -298T531 -364T435 -404T191 -423L170 -270Q303 -270 329 -264T380 -251T416 -233T446 -205Q492 -160 549 24Q267 672 142
988L99 1097H296L644 208ZM1016 1519Q1025 1623 1025 1698Q1123 1688 1209 1688Q1197 1602 1197 1508Q1101 1519 1016 1519ZM581 1688Q667 1688 765 1698Q765 1612 776 1519Q686 1519 592 1508Q592 1595 581 1688Z" />
<glyph unicode="&#x2013;" glyph-name="endash" horiz-adv-x="1229" d="M184 531V680H1391V531H184Z" />
<glyph unicode="&#x2014;" glyph-name="emdash" horiz-adv-x="1229" d="M-6 531V680H1235V531H-6Z" />
<glyph unicode="&#x2018;" glyph-name="quoteleft" horiz-adv-x="1229" d="M446 1110L617 1588H762L647 1110H446Z" />
<glyph unicode="&#x2019;" glyph-name="quoteright" horiz-adv-x="1229" d="M761 1588L592 1110H446L563 1588H761Z" />
<glyph unicode="&#x201a;" glyph-name="quotesinglbase" horiz-adv-x="1229" d="M773 218L604 -258H457L574 218H773Z" />
<glyph unicode="&#x201c;" glyph-name="quotedblleft" horiz-adv-x="1229" d="M233 1110L404 1588H551L435 1110H233ZM620 1110L790 1588H938L822 1110H620Z" />
<glyph unicode="&#x201d;" glyph-name="quotedblright" horiz-adv-x="1229" d="M913 1588L742 1110H595L712 1588H913ZM550 1588L380 1110H233L349 1588H550Z" />
<glyph unicode="&#x201e;" glyph-name="quotedblbase" horiz-adv-x="1229" d="M958 218L787 -258H641L755 218H958ZM561 218L391 -258H244L360 218H561Z" />
<glyph unicode="&#x2022;" glyph-name="bullet" horiz-adv-x="1229" d="M1126 610T1016 514T747 418T484 520T379 753Q379 938 558 1040Q655 1096 747 1096Q921 1096 1023 992T1126 749Z" />
<glyph unicode="&#x2039;" glyph-name="guilsinglleft" horiz-adv-x="1229" d="M881 992L589 588L871 185H698L401 588L704 992H881Z" />
<glyph unicode="&#x203a;" glyph-name="guilsinglright" horiz-adv-x="1229" d="M401 185L691 589L409 992H582L881 589L575 185H401Z" />
</font>
</defs>
</svg>
